bt.etree.org
etree.org Community Bittorrent Tracker
ArtistOther
ShowGr8fl Dude & Frenz Scottdale, Georgia 11/21/2012 (Schoeps CCM4V'S FOB)
Report this as
non-Trade-Friendly
Email us
Torrentgr8fldude2012-11-21.flac16.torrent (click to download)
Downloads asgr8fldude2012-11-21.flac16
Info hash334d371c934a77861fb1c48471ec99b0c96690e2
DescriptionGr8fldude And Frenz
Top Secret Studios
Scottdale, Georgia
11/21/2012

Source: Schoeps CCM4V'S(din)>Lunatec V2>Benchmark AD2K>
Sound Devices 722 (24/48)
FOB/DFC/KFC/ZFC/AARP 12' From Stage, 6 1/2' High
DSP: Sound Devices 722>Sound Forge 9.0>CD Wave>flac(16)
Recorded By: Z-Man
Seeded By: Z-Man

Disc I 1st Set Chris Jackson And Butch Porter

01 Nobody's Home
02 Give It To Me ?
03 I'm A Tree
04 Sweet Home Chicago
05 Rollin' On
06 Felix The Super Fat Cat
07 Let Us See

Disc II 2nd Set Gr8fl Dude And Frenz

01 Ramble On Rose
02 New Speedway Boogie
03 Nature Rules
04 *West L A Fadeaway
05 *Reuben And Cherise

Disc III 2nd Set Con't Gr8fl Dude And Frenz

01 Southern Blues
02 Brown-Eyed Women
03 Eyes Of The World >
04 Fact Of Life
05 *Roadhouse Blues

* With Andrew On Guitar

Lewis Newmark - Guitar And Vocals
Scott Balun - Bass
Todd Tornbull - Guitar And Vocals
Butch Porter - Drums
Blair Price - Keyboards

Flac Fingerprint

gr8fldude2012-11-21d01t01.flac:4cf3ff3aba05360ae057be76a6794818
gr8fldude2012-11-21d01t02.flac:425d3cc093ce96ee44ad35c94bdf8caa
gr8fldude2012-11-21d01t03.flac:67e6d36e9ae71e8e413cd0d58ffcef30
gr8fldude2012-11-21d01t04.flac:88b31a68a42cc4377f17a49e894584a1
gr8fldude2012-11-21d01t05.flac:1ad593526f051d7559eaa5e54ee847da
gr8fldude2012-11-21d01t06.flac:841969a7670f994cb8c1d81322942b89
gr8fldude2012-11-21d01t07.flac:494adab8529653c552d069d61ed46a9b
gr8fldude2012-11-21d02t01.flac:83f01c3786588644b4119b123fb3052d
gr8fldude2012-11-21d02t02.flac:badbdce870df7cd0cb6aec4c13512035
gr8fldude2012-11-21d02t03.flac:8fee6dfb145cdd4169f0aa02e4afdbb0
gr8fldude2012-11-21d02t04.flac:a470ad181806d785a2f26073811851ad
gr8fldude2012-11-21d02t05.flac:75d1ac937b4068087b9b76fcce0d8cc6
gr8fldude2012-11-21d03t01.flac:b74091b380161c8fad68a1e3e7b93739
gr8fldude2012-11-21d03t02.flac:63cac0facf66f18fc0c08f9258cf67c4
gr8fldude2012-11-21d03t03.flac:9ae27ccd4a01530bb1d912c082b0fa4d
gr8fldude2012-11-21d03t04.flac:ae97952d17505f52a91c714c412d9748
gr8fldude2012-11-21d03t05.flac:653be66fe28d52270edb2864f6c401be

Shntool

length expanded size cdr WAVE problems fmt ratio filename
3:28.40 36785324 B --- -- ---xx flac 0.3611 gr8fldude2012-11-21d01t01.flac
3:12.37 33955868 B --- -- ---xx flac 0.4138 gr8fldude2012-11-21d01t02.flac
2:46.01 29284796 B --- -- ---xx flac 0.3407 gr8fldude2012-11-21d01t03.flac
4:40.17 49432028 B --- -- ---xx flac 0.4367 gr8fldude2012-11-21d01t04.flac
3:35.43 38027180 B --- -- ---xx flac 0.4398 gr8fldude2012-11-21d01t05.flac
1:55.04 20295452 B --- -- ---xx flac 0.3799 gr8fldude2012-11-21d01t06.flac
3:49.69 40557932 B --- -- ---xx flac 0.4089 gr8fldude2012-11-21d01t07.flac
12:52.16 136218476 B --- -- ---xx flac 0.4763 gr8fldude2012-11-21d02t01.flac
11:50.28 125309900 B --- -- ---xx flac 0.5421 gr8fldude2012-11-21d02t02.flac
10:42.16 113286476 B --- -- ---xx flac 0.4510 gr8fldude2012-11-21d02t03.flac
14:06.67 149392028 B --- -- ---xx flac 0.4617 gr8fldude2012-11-21d02t04.flac
6:55.74 73380092 B --- -- ---xx flac 0.5602 gr8fldude2012-11-21d02t05.flac
11:01.11 116626316 B --- -- ---xx flac 0.4569 gr8fldude2012-11-21d03t01.flac
7:23.20 78192284 B --- -- ---xx flac 0.5220 gr8fldude2012-11-21d03t02.flac
13:07.36 138911516 B --- -- ---xx flac 0.5395 gr8fldude2012-11-21d03t03.flac
5:58.56 63282956 B --- -- ---xx flac 0.4729 gr8fldude2012-11-21d03t04.flac
12:33.43 132930380 B --- -- ---xx flac 0.5459 gr8fldude2012-11-21d03t05.flac
129:59.53 1375869004 B 0.4836 (17 files)

Checksumsgr8fldude2012-11-21d01t01.flac:4cf3ff3aba05360ae057be76a6794818
gr8fldude2012-11-21d01t02.flac:425d3cc093ce96ee44ad35c94bdf8caa
gr8fldude2012-11-21d01t03.flac:67e6d36e9ae71e8e413cd0d58ffcef30
gr8fldude2012-11-21d01t04.flac:88b31a68a42cc4377f17a49e894584a1
gr8fldude2012-11-21d01t05.flac:1ad593526f051d7559eaa5e54ee847da
gr8fldude2012-11-21d01t06.flac:841969a7670f994cb8c1d81322942b89
gr8fldude2012-11-21d01t07.flac:494adab8529653c552d069d61ed46a9b
gr8fldude2012-11-21d02t01.flac:83f01c3786588644b4119b123fb3052d
gr8fldude2012-11-21d02t02.flac:badbdce870df7cd0cb6aec4c13512035
gr8fldude2012-11-21d02t03.flac:8fee6dfb145cdd4169f0aa02e4afdbb0
gr8fldude2012-11-21d02t04.flac:a470ad181806d785a2f26073811851ad
gr8fldude2012-11-21d02t05.flac:75d1ac937b4068087b9b76fcce0d8cc6
gr8fldude2012-11-21d03t01.flac:b74091b380161c8fad68a1e3e7b93739
gr8fldude2012-11-21d03t02.flac:63cac0facf66f18fc0c08f9258cf67c4
gr8fldude2012-11-21d03t03.flac:9ae27ccd4a01530bb1d912c082b0fa4d
gr8fldude2012-11-21d03t04.flac:ae97952d17505f52a91c714c412d9748
gr8fldude2012-11-21d03t05.flac:653be66fe28d52270edb2864f6c401be
Visibleno (dead)
TypeOther
Last seederLast activity 177 days, 17:06:34 ago
Size634.61 MB (665440404 Bytes)
Added2012-11-22 10:55:03
Views0
Hits159
Snatched7 times
Upped byzmanatl
Num files18 files
File List
[Hide list]
filenamesizemd5
gr8fldude2012-11-21d03t03.flac71.46 MBN/A
gr8fldude2012-11-21d03t05.flac69.20 MBN/A
gr8fldude2012-11-21d02t04.flac65.78 MBN/A
gr8fldude2012-11-21d02t02.flac64.78 MBN/A
gr8fldude2012-11-21d02t01.flac61.87 MBN/A
gr8fldude2012-11-21d03t01.flac50.82 MBN/A
gr8fldude2012-11-21d02t03.flac48.72 MBN/A
gr8fldude2012-11-21d02t05.flac39.20 MBN/A
gr8fldude2012-11-21d03t02.flac38.93 MBN/A
gr8fldude2012-11-21d03t04.flac28.54 MBN/A
gr8fldude2012-11-21d01t04.flac20.59 MBN/A
gr8fldude2012-11-21d01t05.flac15.95 MBN/A
gr8fldude2012-11-21d01t07.flac15.82 MBN/A
gr8fldude2012-11-21d01t02.flac13.40 MBN/A
gr8fldude2012-11-21d01t01.flac12.67 MBN/A
gr8fldude2012-11-21d01t03.flac9.52 MBN/A
gr8fldude2012-11-21d01t06.flac7.35 MBN/A
gr8fldude2012-11-21.textfile.txt3.8 kBN/A
Peers
[See full list]
0 seeders, 0 leechers = 0 peers total

Add a comment

bigdaddybflo 2012-11-22 11:41:34
Gobble Gobble

Add a comment


http://etree.org : http://db.etree.org : http://forums.etree.org : http://wiki.etree.org : Legal : RSS Feed

Contents designed & maintained by the etree.org volunteers
1998-2014, etree.org, except where noted. All Rights Reserved.
Read our terms of service and privacy guidelines