bt.etree.org
etree.org Community Bittorrent Tracker
ArtistOther
ShowJohn McKnight Blues Jam Nik's Place Marietta, Georgia 11/22/2012 (Schoeps CCM4V'S FOB)
Report this as
non-Trade-Friendly
Email us
Torrentmcknight2012-11-22.flac16.torrent (click to download)
Downloads asmcknight2012-11-22.flac16
Info hash8966d44f02ccd48f4ae22cf27c99f679931437bb
DescriptionJohn McKnight Blues Jam
Nik's Place
Marietta, Georgia
11/22/2012

Source: Schoeps CCM4V'S(din)>Lunatec V2>Benchmark AD2K>
Sound Devices 722 (24/48)
FOB/DFC/KFC/ZFC/AARP Stage Lip, 7' High
DSP: Sound Devices 722>Sound Forge 9.0>CD Wave>flac(16)
Recorded By: Z-Man
Seeded By: Z-Man

Disc I 1st Set

01 Tuning
02 You Don't Have To Spell It Out For Me
03 My Name Is Samuel
04 ?
05 You Won't Ever Miss Me
06 On The Road To Galilee
07 Death Gonna Be My Ride
08 I'm Goin' Down
09 Get Out My Life Woman
10 Somewhere In Oklahoma
11 A Little Bit Of Pussy and A Lot Of Dough

John McKnight - Drums And Vocals
Nate Nelson - Guitar And Vocals
John Schwenke - Bass And Vocals
Joe Davis - Guitar, Lap Steel Guitar, And Vocals

Flac Fingerprint

mcknight2012-11-22d01t01.flac:10772d64d3b586f5545c4286cdd2e925
mcknight2012-11-22d01t02.flac:464d34f110567fd3cbad5678f0640ee5
mcknight2012-11-22d01t03.flac:f2d781d662b1cf8d828f063a0971d4e2
mcknight2012-11-22d01t04.flac:afb88cd71f3535c0bf6536ffb93ddff8
mcknight2012-11-22d01t05.flac:7491bd9ad9d8d677ca8006ff03758282
mcknight2012-11-22d01t06.flac:969a27ee1bdd31813dc190799450787d
mcknight2012-11-22d01t07.flac:c0bab95da6790f72da1a82532c051731
mcknight2012-11-22d01t08.flac:73a0e4faba8fbe09b93f6807d2645ff2
mcknight2012-11-22d01t09.flac:e6a3155ccf56111b61e0d6af67ffcd2c
mcknight2012-11-22d01t10.flac:b055ea57a5e19951a3c400fbc725cf66
mcknight2012-11-22d01t11.flac:f0c97a87a712d2189cfb1cc8a61ccb83

Shntool

length expanded size cdr WAVE problems fmt ratio filename
0:46.04 8123852 B --- -- ---xx flac 0.3028 mcknight2012-11-22d01t01.flac
4:55.72 52207388 B --- -- ---xx flac 0.5222 mcknight2012-11-22d01t02.flac
4:02.23 42742940 B --- -- ---xx flac 0.4772 mcknight2012-11-22d01t03.flac
5:28.69 58021532 B --- -- ---xx flac 0.4485 mcknight2012-11-22d01t04.flac
3:56.70 41795084 B --- -- ---xx flac 0.4795 mcknight2012-11-22d01t05.flac
6:11.48 65557340 B --- -- ---xx flac 0.4135 mcknight2012-11-22d01t06.flac
5:19.01 56273996 B --- -- ---xx flac 0.4372 mcknight2012-11-22d01t07.flac
4:34.08 48352460 B --- -- ---xx flac 0.5248 mcknight2012-11-22d01t08.flac
6:46.32 71693708 B --- -- ---xx flac 0.5258 mcknight2012-11-22d01t09.flac
3:34.66 37904876 B --- -- ---xx flac 0.3795 mcknight2012-11-22d01t10.flac
3:15.69 34560332 B --- -- ---xx flac 0.4487 mcknight2012-11-22d01t11.flac
48:52.12 517233508 B 0.4657 (11 files)






Checksumsmcknight2012-11-22d01t01.flac:10772d64d3b586f5545c4286cdd2e925<br />
mcknight2012-11-22d01t02.flac:464d34f110567fd3cbad5678f0640ee5<br />
mcknight2012-11-22d01t03.flac:f2d781d662b1cf8d828f063a0971d4e2<br />
mcknight2012-11-22d01t04.flac:afb88cd71f3535c0bf6536ffb93ddff8<br />
mcknight2012-11-22d01t05.flac:7491bd9ad9d8d677ca8006ff03758282<br />
mcknight2012-11-22d01t06.flac:969a27ee1bdd31813dc190799450787d<br />
mcknight2012-11-22d01t07.flac:c0bab95da6790f72da1a82532c051731<br />
mcknight2012-11-22d01t08.flac:73a0e4faba8fbe09b93f6807d2645ff2<br />
mcknight2012-11-22d01t09.flac:e6a3155ccf56111b61e0d6af67ffcd2c<br />
mcknight2012-11-22d01t10.flac:b055ea57a5e19951a3c400fbc725cf66<br />
mcknight2012-11-22d01t11.flac:f0c97a87a712d2189cfb1cc8a61ccb83
Visibleno (dead)
TypeOther
Last seederLast activity 180 days, 08:39:21 ago
Size229.70 MB (240857387 Bytes)
Added2012-11-23 00:10:56
Views0
Hits200
Snatched21 times
Upped byzmanatl
Num files
[See full list]
12 files
Seeders
[Hide list]
0 Seeder(s)
Leechers
[Hide list]
0 Leecher(s)

No comments yet

Add a comment


http://etree.org : http://db.etree.org : http://forums.etree.org : http://wiki.etree.org : Legal : RSS Feed

Contents designed & maintained by the etree.org volunteers
1998-2014, etree.org, except where noted. All Rights Reserved.
Read our terms of service and privacy guidelines