bt.etree.org
etree.org Community Bittorrent Tracker
ArtistGrateful Dead
Showgd82-02-17.112408.sbd.miller.t-flac16
Report this as
non-Trade-Friendly
Email us
Torrentgd82-02-17.112408.sbd.miller.t-flac16.torrent (click to download)
Downloads asgd82-02-17.112408.sbd.miller.t-flac16
Info hash666972be9bce7e4ec7a346584f2c26640d016e75
db linkhttp://db.etree.org/shn/112408 | Show | Source
DescriptionThis is a tagged version of shnid: 112408

Grateful Dead
February 17, 1982
Warfield Theatre
San Francisco, CA

Recording Info:
Set 1: SBD -> Cassette Master (TDK MA-R90)
Set 2: SBD -> Cassette Master -> Cassette (Dolby C)

Transfer Info:
Set 1:
Cassette Master (Nakamichi DR-1) ->Sound Devices 744T (24bit/48k) ->FLAC/16
Set 2:
Cassette (Nakamichi DR-1/Dolby C) ->Sound Devices 744T (24bit/48k) ->FLAC/16
(3 Discs Audio / 2 Discs FLAC)

All Transfers and Mastering By Charlie Miller
charliemiller87@earthlink.net
March 16, 2011

Patch Info:
Nakamichi 700 -> Cassette Master -> CD (shnid=21916) supplies:
Minglewood Blues (0:00 - 0:54)
Tennessee Jed (4:58 - 7:40)
Scarlet Begonias (0:00 - 1:28)
Fire On The Mountain (7:05 - end of track)
Estimated Propeht (0:00 - 1:26)
The Wheel (5:36 - end of track)
Not Fade Away (0:00 - 0:09)

Notes:
-- Set 2 is seamless
-- Sound improves during New Minglewood Blues
-- SBD portions of Scarlet -> Fire are from same source as Set 1
-- Don't let the patches scare you it's not that bad
-- I highly doubt the accuracy of the lineage on other circulating
copies of the sbd
____________________________________________________________________________

--Set 1--
101-d1t01 - New Minglewood Blues ->
102-d1t02 - Sugaree
103-d1t03 - On the Road Again
104-d1t04 - Bird Song
105-d1t05 - C C Rider
106-d1t06 - Tennessee Jed
107-d1t07 - It's All Over Now
108-d1t08 - Loser
109-d1t09 - Man Smart (Woman Smarter)

--Set 2--
201-d2t01 - Scarlet Begonias ->
202-d2t02 - Fire on the Mountain ->
203-d2t03 - Estimated Prophet ->
204-d2t04 - Eyes of the World ->
205-d2t05 - Drums ->
206-d3t01 - Space ->
207-d3t02 - The Wheel ->
208-d3t03 - Not Fade Away ->
209-d3t04 - Wharf Rat ->
210-d3t05 - Sugar Magnolia

--Encore--
211-d3t06 - (I Can't Get No) Satisfaction
____________________________________________________________________________

Tagging notes:
Show information is embedded within the header of each flac file.
It will display on any player capable of directly playing flac files.
If converted to wav during processing, all tags will be stripped,
however audio data will remain unaffected.
If you must transcode to a lossy format, do so directly Flac > Lossy.
Use ffp to validate audio integrity.
Md5 values will change if tagging is altered.
B. Proctor 3-19-11
____________________________________________________________________________

SHNTOOL OUTPUT:
length expanded size cdr WAVE problems filename
6:56.21 73431836 --- -- ----- gd82-02-17d1t01.wav
11:38.41 123223676 --- -- ----- gd82-02-17d1t02.wav
5:22.30 56871404 --- -- ----- gd82-02-17d1t03.wav
9:20.36 98868716 --- -- ----- gd82-02-17d1t04.wav
9:24.03 99496700 --- -- ----- gd82-02-17d1t05.wav
8:21.56 88508156 --- -- ----- gd82-02-17d1t06.wav
10:40.40 112990124 --- -- ----- gd82-02-17d1t07.wav
6:42.34 70992812 --- -- ----- gd82-02-17d1t08.wav
5:44.54 60808652 --- -- ----- gd82-02-17d1t09.wav
13:04.09 138318812 --- -- ----- gd82-02-17d2t01.wav
9:19.16 98645276 --- -- ----- gd82-02-17d2t02.wav
12:15.19 129698732 --- -- ----- gd82-02-17d2t03.wav
9:15.49 98017292 --- -- ----- gd82-02-17d2t04.wav
12:48.54 135602252 --- -- ----- gd82-02-17d2t05.wav
7:22.09 77990012 --- -- ----- gd82-02-17d3t01.wav
6:32.60 69289964 --- -- ----- gd82-02-17d3t02.wav
8:36.56 91154156 --- -- ----- gd82-02-17d3t03.wav
9:13.68 97709180 --- -- ----- gd82-02-17d3t04.wav
11:46.17 124578428 --- -- ----- gd82-02-17d3t05.wav
6:32.07 69165308 --- -- ----- gd82-02-17d3t06.wav
180:58.04 1915361488 B (totals for 20 files)
Checksumsgd82-02-17d1t01.flac:db0ceaf52098dba56bf2ff65338e5acd
gd82-02-17d1t02.flac:2e00b47e5364251b84d2d5bf3790c665
gd82-02-17d1t03.flac:58d191730fcf967d673371198dd6c3f1
gd82-02-17d1t04.flac:de2cfaa5b6e528fc60766c40fc183afc
gd82-02-17d1t05.flac:6792db5b092f7552427ee6bbe4dac124
gd82-02-17d1t06.flac:0d26eabfd32211a84e8374d50f41f44d
gd82-02-17d1t07.flac:39e684869aa47847ec12ec2d80c93e98
gd82-02-17d1t08.flac:330932ce48d2df41edbcc308602c8c19
gd82-02-17d1t09.flac:1bd3d1947e20abd2d94c02908aeaa7ea
gd82-02-17d2t01.flac:9d1072752004de9031ef50f84ba7730c
gd82-02-17d2t02.flac:1aa95ddbfe8c8da40127dc8debae7b58
gd82-02-17d2t03.flac:cb1ce3b4ecb3b3dd1743c4fed4686199
gd82-02-17d2t04.flac:1b19ab1366408c0cda5d80238e96c33a
gd82-02-17d2t05.flac:ecccc3b72f715f5ccf8f5259b2bbe916
gd82-02-17d3t01.flac:9cc0495ea1e4f3a95e2a77dd5a7d9ce9
gd82-02-17d3t02.flac:e800f9bebd95135d2aabfc199ee6a14a
gd82-02-17d3t03.flac:ee80bd004cddfb0f337774f59068405d
gd82-02-17d3t04.flac:ed8e0b7c9728516547a4852122323210
gd82-02-17d3t05.flac:2ec8cb715a98451ce3a7aed3529fc0c6
gd82-02-17d3t06.flac:2e0ab15420a37f538c81ff8f5b54f7fe
TypeGrateful Dead
Last seederLast activity 7:21 ago
Size1.179 GB (1266343551 Bytes)
Added2012-11-24 08:08:44
Views0
Hits643
Snatched343 times
Upped bygermain
Num files23 files
File List
[Hide list]
filenamesizemd5
gd82-02-17.112408.tagged.md51.2 kBN/A
gd82-02-17.112408.txt3.9 kBN/A
gd82-02-17.ffp1.1 kBN/A
gd82-02-17d1t01.flac46.66 MBN/A
gd82-02-17d1t02.flac75.16 MBN/A
gd82-02-17d1t03.flac34.50 MBN/A
gd82-02-17d1t04.flac64.47 MBN/A
gd82-02-17d1t05.flac60.09 MBN/A
gd82-02-17d1t06.flac53.49 MBN/A
gd82-02-17d1t07.flac70.41 MBN/A
gd82-02-17d1t08.flac43.48 MBN/A
gd82-02-17d1t09.flac38.22 MBN/A
gd82-02-17d2t01.flac88.35 MBN/A
gd82-02-17d2t02.flac61.43 MBN/A
gd82-02-17d2t03.flac85.96 MBN/A
gd82-02-17d2t04.flac67.90 MBN/A
gd82-02-17d2t05.flac77.50 MBN/A
gd82-02-17d3t01.flac44.38 MBN/A
gd82-02-17d3t02.flac44.63 MBN/A
gd82-02-17d3t03.flac59.64 MBN/A
gd82-02-17d3t04.flac62.76 MBN/A
gd82-02-17d3t05.flac81.12 MBN/A
gd82-02-17d3t06.flac47.52 MBN/A
Peers
[See full list]
4 seeders, 0 leechers = 4 peers total

Add a comment

germain 2012-11-24 08:45:12
While the boards for this show are very good, that is not the case for most of the 82 shows. If you rely on boards to feed your '82 Jones, you are going to be disappointed. If you really want to discover the sound, at least check out the the audience source. 75-80% of the time it will trump the board and we've selected the highest quality source available.
cryptical17 2012-11-24 09:56:21
Words of wisdom fromt the "Great Germain"

thanks!!
jcro419 2012-11-24 15:20:54
Love 82!!! Please upload 4/18 and 4/19 :).
mryan1727 2012-11-26 09:50:23
What happened or what was different that made the 1982 board tapes "off" as compared to other years?
germain 2012-11-26 11:18:16
It's not just '82 boards that most often sound dry and sterile, this problem occurs throughout the early and mid 80's. The difference between the early 80's boards and the boards from the 70's is the mix. Betty and crew recorded a different mix than was broadcast through the PA system. Their mix was designed to achieve the best sound for playback.

In the early 80's, Healy's recordings replaced Betty's. His mix was straight off the sound sent to the PA system. This mix was designed to compliment the sound coming from the stage. The levels of the vocals and the various instruments were adjusted so that the audience had a clean, balanced mix. However, hearing just the PA mix leaves a lot to be desired.

By the early 80's, tapers and their equipment had become more sophisticated. When they found the sweet spot, their audience recordings captured the sound and energy far better than the board.
poizon45 2012-12-06 11:18:08
hey thanks!
Pisces 2014-06-29 21:37:55
Thanks!

Add a comment


http://etree.org : http://db.etree.org : http://forums.etree.org : http://wiki.etree.org : Legal : RSS Feed

Contents designed & maintained by the etree.org volunteers
1998-2014, etree.org, except where noted. All Rights Reserved.
Read our terms of service and privacy guidelines