bt.etree.org
etree.org Community Bittorrent Tracker
ArtistGrateful Dead
Showgd82-02-19.94395.fob-sonyecm220t.keshaven.miller.t-flac16
Report this as
non-Trade-Friendly
Email us
Torrentgd82-02-19.94395.fob.sonyecm220t.keshavan-miller.sbeok.t-flac16.torrent (click to download)
Downloads asgd82-02-19.94395.fob.sonyecm220t.keshavan-miller.sbeok.t-flac16
Info hashf1892fd6b6938146e1f3d7e2029d1b15625daf8e
db linkhttp://db.etree.org/shn/94395 | Show | Source
DescriptionThis is a tagged version of shnid: 94395

Grateful Dead
February 19, 1982
Golden Hall
San Diego Community Concourse
San Diego, CA

Recording Info:
(FOB/6th Row) Sony ECM-220T -> Cassette Master
(Sony TC-D5M/Fuji FeCr Tape/Dolby B)

Transfer Info:
Cassette Master (Nakamichi DR-1/Dolby B) -> Sound Devices
744T (24bit/88.2k) -> Samplitude Professional v10.1 -> FLAC/16
(3 Discs Audio / 2 Discs FLAC)

All Transfers and Mastering By Charlie Miller
charliemiller87@earthlink.net
September 5, 2008

Patch Info:
Nakamichi 700 -> Cassette Master -> CD (shnid=28382) supplies:
El Paso (0:00 - 0:15)
Drums (11:02 - 11:30)
Man Smart (Woman Smarter) (5:29 - end of track)
Johnny B. Goode (0:00 - 0:14)

Notes:
-- Set 2 is seamless
-- Thanks to Rango Keshavan for lending me his masters
________________________________________________________________________

--Set 1--
101-d1t01 - Tuning
102-d1t02 - Bertha ->
103-d1t03 - Greatest Story Ever Told
104-d1t04 - Dire Wolf
105-d1t05 - Little Red Rooster
106-d1t06 - Brown Eyed Women
107-d1t07 - Cassidy
108-d1t08 - Candyman ->
109-d1t09 - El Paso
110-d1t10 - Althea
111-d1t11 - New Minglewood Blues

--Set 2--
201-d2t01 - Tuning
202-d2t02 - Alabama Getaway ->
203-d2t03 - The Promised Land ->
204-d2t04 - Ship of Fools
205-d2t05 - Lost Sailor ->
206-d2t06 - Saint of Circumstance ->
207-d2t07 - Drums ->
208-d3t01 - Space ->
209-d3t02 - The Other One ->
210-d3t03 - Stella Blue ->
211-d3t04 - Man Smart (Woman Smarter) ->
212-d3t05 - Johnny B. Goode

--Encore--
213-d3t06 - U.S. Blues
________________________________________________________________________

Tagging notes:
Show information is embedded within the header of each flac file.
It will display on any player capable of directly playing flac
files. If converted to wav during processing, all tags will be
stripped, however audio data will remain unaffected. If you must
transcode to a lossy format, do so directly Flac > Lossy.
Use ffp to validate audio integrity.
Md5 values will change if tagging is altered.
B. Proctor 11-15-10
________________________________________________________________________

SHNTOOL OUTPUT:
length expanded size cdr WAVE problems filename
0:35.25 6232844 --- -- ----- gd82-02-19d1t01.wav
6:58.03 73742300 --- -- ----- gd82-02-19d1t02.wav
4:22.40 46310924 --- -- ----- gd82-02-19d1t03.wav
3:45.24 39746492 --- -- ----- gd82-02-19d1t04.wav
8:43.30 92327804 --- -- ----- gd82-02-19d1t05.wav
5:28.05 57871004 --- -- ----- gd82-02-19d1t06.wav
5:11.42 54959228 --- -- ----- gd82-02-19d1t07.wav
6:26.25 68149244 --- -- ----- gd82-02-19d1t08.wav
5:51.57 62050508 --- -- ----- gd82-02-19d1t09.wav
7:48.27 82618748 --- -- ----- gd82-02-19d1t10.wav
7:03.01 74619596 --- -- ----- gd82-02-19d1t11.wav
1:11.19 12569132 --- -- ----- gd82-02-19d2t01.wav
5:43.55 60634604 --- -- ----- gd82-02-19d2t02.wav
4:25.10 46769564 --- -- ----- gd82-02-19d2t03.wav
7:51.32 83159708 --- -- ----- gd82-02-19d2t04.wav
7:05.09 74991212 --- -- ----- gd82-02-19d2t05.wav
12:01.62 127330268 --- -- ----- gd82-02-19d2t06.wav
11:32.11 122094716 --- -- ----- gd82-02-19d2t07.wav
7:16.26 76971596 --- -- ----- gd82-02-19d3t01.wav
11:26.71 121177436 --- -- ----- gd82-02-19d3t02.wav
9:57.33 105388460 --- -- ----- gd82-02-19d3t03.wav
5:31.74 58562492 --- -- ----- gd82-02-19d3t04.wav
6:35.00 69678044 --- -- ----- gd82-02-19d3t05.wav
5:40.60 60117164 --- -- ----- gd82-02-19d3t06.wav
158:32.66 1678073088 B (totals for 24 files)
Checksumsgd82-02-19d1t01.flac:e52a3d26daf7014662166a3b9bf87c7f
gd82-02-19d1t02.flac:1c4a94ef019dcf153b968512d7ede85c
gd82-02-19d1t03.flac:522f33dd90e54e9b46c07c70a7af1f11
gd82-02-19d1t04.flac:5ef258b6c9aabd82b7d834e21b5eefec
gd82-02-19d1t05.flac:d60efa8de06335dee22f7a31710a0b95
gd82-02-19d1t06.flac:0bea57e8356101ccc6ffd7608bd705ab
gd82-02-19d1t07.flac:d85e66661f9a10a0cf04927f471080ac
gd82-02-19d1t08.flac:8e8bdff435b9d828abdc371a9dd19bf8
gd82-02-19d1t09.flac:7ae8da449d4e1e882e001feb61536a1e
gd82-02-19d1t10.flac:2b05da56ec6d9d64489c5900c1514f1d
gd82-02-19d1t11.flac:0cf8b5f60f71ecf8a64e4c8048951cd4
gd82-02-19d2t01.flac:6f8ff8453aa34e37806d0b365fb8693b
gd82-02-19d2t02.flac:11d01de65d24698ad05f41a953c4aa8a
gd82-02-19d2t03.flac:85cd0b629d78375d82e3b3b2e4945a77
gd82-02-19d2t04.flac:ca58b8ebc2531f35db94e9612b8f229a
gd82-02-19d2t05.flac:6f0063708625fbb1408b01a99fbbbf8f
gd82-02-19d2t06.flac:6079108f212fea4f102f605ee8608ea6
gd82-02-19d2t07.flac:2340177464451203f47a91b1c0e08163
gd82-02-19d3t01.flac:74c0128feef80653d6b92cbad63c64cb
gd82-02-19d3t02.flac:7b9641ccb63e3fddaa3ae0bba571092a
gd82-02-19d3t03.flac:004f99017c0aa3ea422796734aa3b3b4
gd82-02-19d3t04.flac:6a6adf161dffa8c76ec16af8a70021b7
gd82-02-19d3t05.flac:ce6f1f5b8d11f2751e0c9d5156f46860
gd82-02-19d3t06.flac:1df3b08b8c1f415460cde49918fa7679
TypeGrateful Dead
Last seederLast activity 30:47 ago
Size934.88 MB (980293235 Bytes)
Added2012-11-25 08:00:08
Views0
Hits390
Snatched199 times
Upped bygermain
Num files
[See full list]
27 files
Seeders
[Hide list]
1 Seeder(s)
ip:portclient
version
ul
bytes
dl
bytes
ratiocompleteul
rate
dl
rate
time
connected
time
left
idle
71.176.152.xxx:49484 μtorrent 3.4.2.0 0 B 0 B N/A 100.00%
N/A N/A 17:31:53 N/A 30:47
0 of 1 firewalled (0%) 100.00%
N/AN/A
Leechers
[Hide list]
0 Leecher(s)

Add a comment

funkbeard 2012-11-26 20:04:24
Famous for a thundering Other One.
poizon45 2012-12-06 11:18:30
hey thanks!

Add a comment


http://etree.org : http://db.etree.org : http://forums.etree.org : http://wiki.etree.org : Legal : RSS Feed

Contents designed & maintained by the etree.org volunteers
1998-2014, etree.org, except where noted. All Rights Reserved.
Read our terms of service and privacy guidelines