bt.etree.org
etree.org Community Bittorrent Tracker
ArtistGrateful Dead
Showgd82-02-20.94410.fob-sonyecm220t.keshaven.miller.t-flac16
Report this as
non-Trade-Friendly
Email us
Torrentgd82-02-20.94410.fob-sonyecm220t.keshavan-miller.sbeok.t-flac16.torrent (click to download)
Downloads asgd82-02-20.94410.fob-sonyecm220t.keshavan-miller.sbeok.t-flac16
Info hash84e2b2476cf2f171c5d02332e9b6d368a3ec9cdd
db linkhttp://db.etree.org/shn/94410 | Show | Source
DescriptionThis is a tagged version of shnid: 94410

Grateful Dead
February 20, 1982
Golden Hall
San Diego Community Concourse
San Diego, CA

Recording Info:
(FOB/6th Row)
Sony ECM-220T -> Cassette Master (Sony TC-D5M/Fuji FeCr Tape/Dolby B)

Transfer Info:
Cassette Master (Nakamichi DR-1/Dolby B) -> Sound Devices 744T
(24bit/88.2k) ->Samplitude Professional v10.1 -> FLAC/16
(3 Discs Audio / 2 Discs FLAC)

All Transfers and Mastering By Charlie Miller
charliemiller87@earthlink.net
September 6, 2008

Patch Info:
Nakamichi 300/CP4 -> Cassette Master -> SHN (shnid=23823) supplies:
Big Railroad Blues (0:00 - 0:09)

Notes:
-- Set 2 is seamless
-- Thanks to Rango Keshavan for lending me his masters
______________________________________________________________________

--Set 1--
101-d1t01 - Jack Straw
102-d1t02 - They Love Each Other ->
103-d1t03 - C C Rider
104-d1t04 - Tennessee Jed
105-d1t05 - Mama Tried ->
106-d1t06 - Mexicali Blues
107-d1t07 - To Lay Me Down ->
108-d1t08 - Let It Grow

--Set 2--
201-d2t01 - Franklin's Tower ->
202-d2t02 - Samson & Delilah
203-d2t03 - Big Railroad Blues
204-d2t04 - Playing in the Band ->
205-d2t05 - Drums ->
206-d3t01 - Space ->
207-d3t02 - Truckin' ->
208-d3t03 - Black Peter ->
209-d3t04 - Around & Around ->
210-d3t05 - One More Saturday Night

--Encore--
211-d3t06 - It's All Over Now, Baby Blue
______________________________________________________________________

Tagging notes:
Show information is embedded within the header of each flac file.
It will display on any player capable of directly playing flac
files. If converted to wav during processing, all tags will be
stripped, however audio data will remain unaffected. If you must
transcode to a lossy format, do so directly Flac > Lossy.
Use ffp to validate audio integrity.
Md5 values will change if tagging is altered.
B. Proctor 11-15-10
______________________________________________________________________

SHNTOOL OUTPUT:
length expanded size cdr WAVE problems filename
6:43.62 71235068 --- -- ----- gd82-02-20d1t01.wav
8:01.33 84926060 --- -- ----- gd82-02-20d1t02.wav
9:30.14 100580972 --- -- ----- gd82-02-20d1t03.wav
8:55.71 94541036 --- -- ----- gd82-02-20d1t04.wav
2:45.42 29204828 --- -- ----- gd82-02-20d1t05.wav
5:22.14 56833772 --- -- ----- gd82-02-20d1t06.wav
8:40.44 91831532 --- -- ----- gd82-02-20d1t07.wav
12:15.28 129719900 --- -- ----- gd82-02-20d1t08.wav
11:01.48 116713340 --- -- ----- gd82-02-20d2t01.wav
7:57.15 84178124 --- -- ----- gd82-02-20d2t02.wav
5:39.30 59870204 --- -- ----- gd82-02-20d2t03.wav
16:48.42 177910028 --- -- ----- gd82-02-20d2t04.wav
7:58.48 84432140 --- -- ----- gd82-02-20d2t05.wav
10:20.36 109452716 --- -- ----- gd82-02-20d3t01.wav
8:07.02 85911548 --- -- ----- gd82-02-20d3t02.wav
8:38.53 91499900 --- -- ----- gd82-02-20d3t03.wav
3:48.00 40219244 --- -- ----- gd82-02-20d3t04.wav
6:25.05 67925804 --- -- ----- gd82-02-20d3t05.wav
7:38.28 80857100 --- -- ----- gd82-02-20d3t06.wav
156:38.15 1657843316 B (totals for 19 files)
Checksumsgd82-02-20d1t01.flac:c79be09a84796a489bbcf3348c710fb4
gd82-02-20d1t02.flac:d5dba66713f2b204d9b0f9ca3f9588bc
gd82-02-20d1t03.flac:97b43abcdb0e60667ba348e206ead9c2
gd82-02-20d1t04.flac:355bb353057be7853538b7faf1b4904c
gd82-02-20d1t05.flac:3f79f9a91ea45d7e16b31b06b7bf93e3
gd82-02-20d1t06.flac:6ef6de9e76fb74a4ad6d9bdb6a41ea14
gd82-02-20d1t07.flac:e515c419990ee3585898f9ed2e7e6c7a
gd82-02-20d1t08.flac:0438eedff571463fb5f25498de521540
gd82-02-20d2t01.flac:4bd512a18b0dc7f0f389e44fd47719cf
gd82-02-20d2t02.flac:229165c079b600a5ad0f6b116b4b1723
gd82-02-20d2t03.flac:87b3c854d7c99aa532b33ce79b15cfe0
gd82-02-20d2t04.flac:22bdf9e62e64f01c6d49b4f8c7f37881
gd82-02-20d2t05.flac:5d3f7e6bb915d2ce418de7b3f895c6ec
gd82-02-20d3t01.flac:5a4a56661340f26a09ae168b6c1c6b2d
gd82-02-20d3t02.flac:669922667d47f82e3ad789683cd7252a
gd82-02-20d3t03.flac:dd30023954ba668b67ae7ead9fa0a802
gd82-02-20d3t04.flac:a5d0785ae8fa2a604f1b513f18c55203
gd82-02-20d3t05.flac:238b78e3b3280d6ad7f8654edc7fa53c
gd82-02-20d3t06.flac:27e66af4e3d6c47c81a671a7439b2f98
TypeGrateful Dead
Last seederLast activity 2 days, 09:26:14 ago
Size913.73 MB (958113176 Bytes)
Added2012-11-25 08:02:22
Views0
Hits449
Snatched222 times
Upped bygermain
Num files
[See full list]
22 files
Seeders
[Hide list]
0 Seeder(s)
Leechers
[Hide list]
0 Leecher(s)

Add a comment

poizon45 2012-12-06 11:19:41
Thanks for all the 82 shows!

Add a comment


http://etree.org : http://db.etree.org : http://forums.etree.org : http://wiki.etree.org : Legal : RSS Feed

Contents designed & maintained by the etree.org volunteers
1998-2014, etree.org, except where noted. All Rights Reserved.
Read our terms of service and privacy guidelines