bt.etree.org
etree.org Community Bittorrent Tracker
ArtistOther
ShowBlue Mountain - 2012-11-24 - The Basement - Nashville, TN. *Matrix*
Report this as
non-Trade-Friendly
Email us
Torrentbluemountain2012-11-24.matrix.flac16.torrent (click to download)
Downloads asbluemountain2012-11-24.matrix.flac16
Info hashf08d493bf12749b5037a088ee64c53ea9681e05c
DescriptionBlue Mountain
2012-11-24
The Basement
Nashville, TN.


***16bit Source***


Source: SBD + Schoeps MK4V > KC5 > CMC6 > Sound Devices 744T (24bit/48kHz)
Location: FOB / SROC / AB / 7ft
Transfer: 744T > HDD > Wavelab 6.1 (DSP/Crystal Re-Sampler/MBit+ Dither/Fades) > CDWave > TLH > FLAC (8)
Taped, Transferred & Seeded by Martin Medley


One Set:

01. Myrna Lee
02. Free State Of Jones
03. Skinny Dipping
04. Wink Of An Eye
05. Poppa
06.
07. Bloody 98
08. Band Called Bud
09. Kelly Jones
10. Midnight In Mississippi
11. Fiddler's Green
12. Blue Canoe
13. I'll Fly Away



shntool info:

length expanded size cdr WAVE problems fmt ratio filename
4:10.31 44172956 B --- -- ---xx flac 0.5481 bluemountain2012-11-24t01.flac
4:00.31 42408956 B --- -- ---xx flac 0.6045 bluemountain2012-11-24t02.flac
6:11.58 65580860 B --- -- ---xx flac 0.5560 bluemountain2012-11-24t03.flac
3:20.06 35294156 B --- -- ---xx flac 0.5906 bluemountain2012-11-24t04.flac
4:30.68 47787980 B --- -- ---xx flac 0.6215 bluemountain2012-11-24t05.flac
4:40.04 49401452 B --- -- ---xx flac 0.5876 bluemountain2012-11-24t06.flac
3:49.64 40546172 B --- -- ---xx flac 0.5379 bluemountain2012-11-24t07.flac
4:18.74 45685292 B --- -- ---xx flac 0.6215 bluemountain2012-11-24t08.flac
3:03.41 32377676 B --- -- ---xx flac 0.5909 bluemountain2012-11-24t09.flac
10:18.49 109130492 B --- -- ---xx flac 0.5992 bluemountain2012-11-24t10.flac
4:03.45 42971084 B --- -- ---xx flac 0.6162 bluemountain2012-11-24t11.flac
1:53.24 19989692 B --- -- ---xx flac 0.5997 bluemountain2012-11-24t12.flac
54:21.45 575346768 B 0.5894 (12 files)
Checksumsbluemountain2012-11-24t01.flac:35b474cae965e120b5c61ce6119a6291
bluemountain2012-11-24t02.flac:7f9e08ab0ce8d2a7e94cac4dc0ae6cab
bluemountain2012-11-24t03.flac:89d44895e65623641feacb781758af57
bluemountain2012-11-24t04.flac:2ee37932b64b59f23c73ba025d64d6fc
bluemountain2012-11-24t05.flac:7665b637f7ca5a2c4bda0652c3da6ed7
bluemountain2012-11-24t06.flac:0afb796f371450bbf418dc6379ab506e
bluemountain2012-11-24t07.flac:68400687d657a4aa6348ccae420788cc
bluemountain2012-11-24t08.flac:d8055c36e1f0682b87400ae1961b853e
bluemountain2012-11-24t09.flac:34cca1fcabe6159a7bdc73c6c19fd98d
bluemountain2012-11-24t10.flac:76302b8a22b1f76662d9fe1946be7eb1
bluemountain2012-11-24t11.flac:41fa292078c8e802a0720e49ff915e43
bluemountain2012-11-24t12.flac:4ad421e9123913d7ad331a956e66b466
TypeOther
Last seederLast activity 1 day, 16:07:37 ago
Size323.38 MB (339084683 Bytes)
Added2012-11-25 15:14:54
Views0
Hits211
Snatched50 times
Upped bymmedley
Num files
[See full list]
13 files
Peers
[See full list]
1 seeder, 0 leechers = 1 peer total

Add a comment

zmanatl 2012-11-25 15:31:00
Nice work Martin. I jumped on to say hey last night. Dany and I were doint the Enlightened Rogues show.
dmonkey 2012-11-25 18:29:58
Cool. Thanks for the Blue Mountain. Haven't heard anything from them in a while, so this will be a treat.
BluesFan 2012-11-26 09:16:47
Thank you very, very much !!!

Any Blue Mountain is always a special treat !

Add a comment


http://etree.org : http://db.etree.org : http://forums.etree.org : http://wiki.etree.org : Legal : RSS Feed

Contents designed & maintained by the etree.org volunteers
1998-2014, etree.org, except where noted. All Rights Reserved.
Read our terms of service and privacy guidelines