bt.etree.org
etree.org Community Bittorrent Tracker
ArtistOther
ShowEnlightened Rogues Barley's Tap Room Knoxville, Tennessee 11/24/2012 (Schoeps CCM4V'S FOB)
Report this as
non-Trade-Friendly
Email us
Torrentenlightened2012-11-24.flac16.torrent (click to download)
Downloads asenlightened2012-11-24.flac16
Info hashd6a04adcea80773d86c254a104f069565f050327
DescriptionEnlightened Rogues
Barley's Tap Room
Knoxville,Tennessee
11/24/2012

Source: Schoeps CCM4V'S(din)>Lunatec V2>Benchmark AD2K>
Sound Devices 722 (24/48)
FOB/DFC/KFC/ZFC/AARP 9' From Stage, 7' High
DSP: Sound Devices 722>Sound Forge 9.0>CD Wave>flac(16)
Recorded By: Z-Man
Seeded By: Z-Man

Disc I 1st Set

01 Tuning
02 Don't Want You No More >
03 It Ain't My Cross To Bear
04 Statesboro Blues
05 Midnight Rider
06 One Way Out
07 Blue Sky
08 Stand Bck >
09 Hot "Lanta
10 Hoochie Coochie Man
11 In Memory Of Elizabeth Reed >
12 Drum Solo >
13 Bass And Drum Solo >
14 Les Brers In A Minor >
15 In Memory Of Elizabeth Reed

Disc II 2nd Set

01 Dreams
02 Back Where It All Began
03 Southbound
04 Jessica >
05 Mountain Jam >
06 Jessica

Disc III 2nd Set Con't

01 Stormy Monday >
02 Whippin" Post
03 Soulshine
04 Don't Keep Me Wonderin' >
05 You Don't Love Me
06 Revival

Flac Fingerprint

er2012-11-24d01t01.flac:68f6b824e11f460ae880660122152333
er2012-11-24d01t02.flac:907a43377afb9144837da78d5a53d7c2
er2012-11-24d01t03.flac:da7e995149cda0a8fef902faf621a15c
er2012-11-24d01t04.flac:f9a095f67913081584d257e61e0c16d4
er2012-11-24d01t05.flac:482a44ee2f2fdc6382fe8e6b4b1aa2c4
er2012-11-24d01t06.flac:61f16bf601825888d8dfc29864e11dbb
er2012-11-24d01t07.flac:b53ed31149c3f17c5bde2b0f473200cd
er2012-11-24d01t08.flac:e4489524b2f1f5a9973ea7e99fb801eb
er2012-11-24d01t09.flac:21903eb4d11739b821efff6aed4a0d15
er2012-11-24d01t10.flac:2c01d1dcbcc306d675e33133aae6bcae
er2012-11-24d01t11.flac:b75ecf76eacaf24dc715b998d70099d0
er2012-11-24d01t12.flac:b1d1b91193fc99683f5ec51094d7a697
er2012-11-24d01t13.flac:c63761a18aff4c731519dd00ddb4e4f1
er2012-11-24d01t14.flac:97bdb8f778f69d55005d29994c45dd68
er2012-11-24d01t15.flac:f223a1183e127f1aabdc2785aec3a388
er2012-11-24d02t01.flac:d5ed93c6cfc96950d78217e87c526762
er2012-11-24d02t02.flac:429aaec5641e8a609f6457d86fc6bab4
er2012-11-24d02t03.flac:b0145cf3bad5b040cd8aef5afc0722af
er2012-11-24d02t04.flac:0831494625c0cf8f45b196f1f5cf6dfd
er2012-11-24d02t05.flac:f64b8c0d8dce6aee6481c22498e36d8b
er2012-11-24d02t06.flac:33a1fad14da696b04470fe67e439e476
er2012-11-24d03t01.flac:3c1861c5557b4efbe9b6a843b68485d3
er2012-11-24d03t02.flac:772ae30e044ee8647bb1376157a0d6e7
er2012-11-24d03t03.flac:64b99c6255c52b533e015774f6f23cc9
er2012-11-24d03t04.flac:c3a7ad080cd8275f5cb91329752c92bf
er2012-11-24d03t05.flac:bc262a4be724fa9a89eb63f9c6056f01
er2012-11-24d03t06.flac:03b84eea5928af7d064b6d90bdd56371

Shntool

length expanded size cdr WAVE problems fmt ratio filename
0:43.10 7608764 B --- -- ---xx flac 0.3402 er2012-11-24d01t01.flac
2:36.52 27640748 B --- -- ---xx flac 0.5908 er2012-11-24d01t02.flac
5:57.07 62991308 B --- -- ---xx flac 0.5217 er2012-11-24d01t03.flac
5:19.73 56443340 B --- -- ---xx flac 0.5706 er2012-11-24d01t04.flac
6:02.55 63986204 B --- -- ---xx flac 0.5406 er2012-11-24d01t05.flac
5:35.48 59206940 B --- -- ---xx flac 0.5505 er2012-11-24d01t06.flac
5:34.45 59023484 B --- -- ---xx flac 0.5379 er2012-11-24d01t07.flac
3:18.15 34962524 B --- -- ---xx flac 0.5979 er2012-11-24d01t08.flac
5:50.24 61796492 B --- -- ---xx flac 0.5399 er2012-11-24d01t09.flac
5:44.17 60721628 B --- -- ---xx flac 0.5612 er2012-11-24d01t10.flac
9:16.62 98224268 B --- -- ---xx flac 0.5556 er2012-11-24d01t11.flac
2:59.50 31693244 B --- -- ---xx flac 0.5171 er2012-11-24d01t12.flac
1:56.14 20495372 B --- -- ---xx flac 0.5431 er2012-11-24d01t13.flac
2:04.12 21901868 B --- -- ---xx flac 0.5846 er2012-11-24d01t14.flac
1:13.32 12952508 B --- -- ---xx flac 0.4779 er2012-11-24d01t15.flac
9:47.39 103638572 B --- -- ---xx flac 0.5174 er2012-11-24d02t01.flac
9:17.20 98301884 B --- -- ---xx flac 0.5519 er2012-11-24d02t02.flac
8:43.25 92316044 B --- -- ---xx flac 0.5522 er2012-11-24d02t03.flac
5:31.16 58426076 B --- -- ---xx flac 0.5660 er2012-11-24d02t04.flac
1:04.05 11301404 B --- -- ---xx flac 0.5559 er2012-11-24d02t05.flac
3:55.70 41618684 B --- -- ---xx flac 0.5594 er2012-11-24d02t06.flac
8:54.56 94329356 B --- -- ---xx flac 0.4927 er2012-11-24d03t01.flac
11:35.53 122722700 B --- -- ---xx flac 0.5385 er2012-11-24d03t02.flac
4:43.58 50057660 B --- -- ---xx flac 0.5284 er2012-11-24d03t03.flac
4:27.25 47157644 B --- -- ---xx flac 0.5390 er2012-11-24d03t04.flac
6:52.55 72806204 B --- -- ---xx flac 0.5309 er2012-11-24d03t05.flac
8:59.69 95241932 B --- -- ---xx flac 0.5472 er2012-11-24d03t06.flac
148:06.32 1567566852 B 0.5416 (27 files)





Checksumser2012-11-24d01t01.flac:68f6b824e11f460ae880660122152333
er2012-11-24d01t02.flac:907a43377afb9144837da78d5a53d7c2
er2012-11-24d01t03.flac:da7e995149cda0a8fef902faf621a15c
er2012-11-24d01t04.flac:f9a095f67913081584d257e61e0c16d4
er2012-11-24d01t05.flac:482a44ee2f2fdc6382fe8e6b4b1aa2c4
er2012-11-24d01t06.flac:61f16bf601825888d8dfc29864e11dbb
er2012-11-24d01t07.flac:b53ed31149c3f17c5bde2b0f473200cd
er2012-11-24d01t08.flac:e4489524b2f1f5a9973ea7e99fb801eb
er2012-11-24d01t09.flac:21903eb4d11739b821efff6aed4a0d15
er2012-11-24d01t10.flac:2c01d1dcbcc306d675e33133aae6bcae
er2012-11-24d01t11.flac:b75ecf76eacaf24dc715b998d70099d0
er2012-11-24d01t12.flac:b1d1b91193fc99683f5ec51094d7a697
er2012-11-24d01t13.flac:c63761a18aff4c731519dd00ddb4e4f1
er2012-11-24d01t14.flac:97bdb8f778f69d55005d29994c45dd68
er2012-11-24d01t15.flac:f223a1183e127f1aabdc2785aec3a388
er2012-11-24d02t01.flac:d5ed93c6cfc96950d78217e87c526762
er2012-11-24d02t02.flac:429aaec5641e8a609f6457d86fc6bab4
er2012-11-24d02t03.flac:b0145cf3bad5b040cd8aef5afc0722af
er2012-11-24d02t04.flac:0831494625c0cf8f45b196f1f5cf6dfd
er2012-11-24d02t05.flac:f64b8c0d8dce6aee6481c22498e36d8b
er2012-11-24d02t06.flac:33a1fad14da696b04470fe67e439e476
er2012-11-24d03t01.flac:3c1861c5557b4efbe9b6a843b68485d3
er2012-11-24d03t02.flac:772ae30e044ee8647bb1376157a0d6e7
er2012-11-24d03t03.flac:64b99c6255c52b533e015774f6f23cc9
er2012-11-24d03t04.flac:c3a7ad080cd8275f5cb91329752c92bf
er2012-11-24d03t05.flac:bc262a4be724fa9a89eb63f9c6056f01
er2012-11-24d03t06.flac:03b84eea5928af7d064b6d90bdd56371
Visibleno (dead)
TypeOther
Last seederLast activity 93 days, 19:04:02 ago
Size809.71 MB (849042945 Bytes)
Added2012-11-25 15:35:43
Views0
Hits154
Snatched32 times
Upped byzmanatl
Num files
[See full list]
28 files
Peers
[See full list]
0 seeders, 0 leechers = 0 peers total

Add a comment

bigdaddybflo 2012-11-25 17:42:46
Z-manimal on the loose !! Look out ! Thanks for the love.
tbonetpr 2012-11-26 13:47:37
Thanks Z-Man! I was in Knoxville for Thanksgiving and missed this show by a day. Sounds great!

Add a comment


http://etree.org : http://db.etree.org : http://forums.etree.org : http://wiki.etree.org : Legal : RSS Feed

Contents designed & maintained by the etree.org volunteers
1998-2014, etree.org, except where noted. All Rights Reserved.
Read our terms of service and privacy guidelines