bt.etree.org
etree.org Community Bittorrent Tracker
ArtistOther
ShowFrankie's Blues Mission Smith's Olde Bar Atlanta, Georgia 11/23/2012 (Schoeps CCM4V'S FOB)
Report this as
non-Trade-Friendly
Email us
Torrentfrankies2012-11-23.flac16.torrent (click to download)
Downloads asfrankies2012-11-23.flac16
Info hash4404b9181348a5c2d8703b942a45125b5165385e
DescriptionFrankie's Blues Mission
Smith's Olde Bar
Atlanta, Georgia
11/23/2012

Source: Schoeps CCM4V'S(din)>Lunatec V2>Benchmark AD2K>
Sound Devices 722 (24/48)
FOB/DFC/KFC/ZFC/AARP 15' From Stage, 7' High
DSP: Sound Devices 722>Sound Forge 9.0>CD Wave>flac(16)
Recorded By: Z-Man
Seeded By: Z-Man

Disc I

01 Greeting
02 Soul Shuffle
03 You Don't Know What Love Is
04 Big Legged Woman
05 McDaniel Street
06 Song For My Father
07 Little By Little
08 I'm So Lonely Since You've Been Gone
09 Sleepin' Dog

Flac Fingerprint

frankies2012-11-23d01t01.flac:c5aef50245b9d26f894046e4d95baf16
frankies2012-11-23d01t02.flac:b07ee2d9908672d3930a4128572d1322
frankies2012-11-23d01t03.flac:e0c144e98c283e881f866c31b5ce6897
frankies2012-11-23d01t04.flac:89749a7163d27461a6320d5afbc0ca65
frankies2012-11-23d01t05.flac:fce123cad18d3f73f534051e895bc339
frankies2012-11-23d01t06.flac:6cd25b81d1b8fca9ac399b1da90e429f
frankies2012-11-23d01t07.flac:79d6f6f7cb19f3ad8a5fad0a77f4c021
frankies2012-11-23d01t08.flac:a11d1600566bbe3a5ee668231b2565c8
frankies2012-11-23d01t09.flac:de77fba6995e522a0284ca3382c7b685

Shntool

length expanded size cdr WAVE problems fmt ratio filename
0:38.69 6865532 B --- -- ---xx flac 0.2842 frankies2012-11-23d01t01.flac
5:22.68 56960780 B --- -- ---xx flac 0.4801 frankies2012-11-23d01t02.flac
5:48.51 61507196 B --- -- ---xx flac 0.5041 frankies2012-11-23d01t03.flac
7:49.59 82870412 B --- -- ---xx flac 0.5085 frankies2012-11-23d01t04.flac
4:38.66 49194476 B --- -- ---xx flac 0.4418 frankies2012-11-23d01t05.flac
4:58.67 52724828 B --- -- ---xx flac 0.4215 frankies2012-11-23d01t06.flac
5:25.04 57339452 B --- -- ---xx flac 0.4625 frankies2012-11-23d01t07.flac
6:04.05 64221404 B --- -- ---xx flac 0.4237 frankies2012-11-23d01t08.flac
10:39.49 112834892 B --- -- ---xx flac 0.4695 frankies2012-11-23d01t09.flac
51:26.63 544518972 B 0.4648 (9 files)








Checksumsfrankies2012-11-23d01t01.flac:c5aef50245b9d26f894046e4d95baf16
frankies2012-11-23d01t02.flac:b07ee2d9908672d3930a4128572d1322
frankies2012-11-23d01t03.flac:e0c144e98c283e881f866c31b5ce6897
frankies2012-11-23d01t04.flac:89749a7163d27461a6320d5afbc0ca65
frankies2012-11-23d01t05.flac:fce123cad18d3f73f534051e895bc339
frankies2012-11-23d01t06.flac:6cd25b81d1b8fca9ac399b1da90e429f
frankies2012-11-23d01t07.flac:79d6f6f7cb19f3ad8a5fad0a77f4c021
frankies2012-11-23d01t08.flac:a11d1600566bbe3a5ee668231b2565c8
frankies2012-11-23d01t09.flac:de77fba6995e522a0284ca3382c7b685
TypeOther
Last seederLast activity 2 days, 19:36:17 ago
Size241.39 MB (253114556 Bytes)
Added2012-11-25 20:48:26
Views0
Hits164
Snatched26 times
Upped byzmanatl
Num files
[See full list]
10 files
Seeders
[Hide list]
0 Seeder(s)
Leechers
[Hide list]
0 Leecher(s)

Add a comment

diskobean 2012-11-25 21:03:37
Slacker ;)

Add a comment


http://etree.org : http://db.etree.org : http://forums.etree.org : http://wiki.etree.org : Legal : RSS Feed

Contents designed & maintained by the etree.org volunteers
1998-2014, etree.org, except where noted. All Rights Reserved.
Read our terms of service and privacy guidelines