bt.etree.org
etree.org Community Bittorrent Tracker
ArtistOther
ShowHigher Choir Smith's Olde Bar Atlanta, Georgia 11/23/2012 (Schoeps CCM4V'S FOB)
Report this as
non-Trade-Friendly
Email us
Torrenthigher2012-11-23.flac16.torrent (click to download)
Downloads ashigher2012-11-23.flac16
Info hash86648ee60bb58cefa1e620e36e1185e50559debf
DescriptionHigher Choir
Smith's Olde Bar
Atlanta, Georgia
11/23/2012

Source: Schoeps CCM4V'S(din)>Lunatec V2>Benchmark AD2K>
Sound Devices 722 (24/48)
FOB/DFC/KFC/ZFC/AARP 15' From Stage, 7' High
DSP: Sound Devices 722>Sound Forge 9.0>CD Wave>flac(16)
Recorded By: Z-Man
Seeded By: Z-Man

Disc I

01 Queen Of Hearts
02 Old Joe Clark
03 Dire Wolf
04 Bill Blake Blues
05 Old #3
06 Who's To Say
07 All Night R
adio >
08 Cottageville
09 Working Man
10 Bring It On Home To Me

Flac Fingerprint

higher2012-11-23d01t01.flac:afa5888fd382623ef063ed30c4fa49ae
higher2012-11-23d01t02.flac:fb39f36040787e9d05c0bee90a479011
higher2012-11-23d01t03.flac:1894a6791c181bd7a9dd3cafae66e8c0
higher2012-11-23d01t04.flac:d40828161fab0dcb255af606edb08d5b
higher2012-11-23d01t05.flac:eebe50d01c0b8fe6856edde2f23a9b02
higher2012-11-23d01t06.flac:6354c5c0b06b83eb1298f1099ec26789
higher2012-11-23d01t07.flac:732a3ad2d43662087a105cdf038c5249
higher2012-11-23d01t08.flac:698405aa5ee3a2d0e631dae52c78dcae
higher2012-11-23d01t09.flac:6ab9d04ac93fbc652921df21bbcf4929
higher2012-11-23d01t10.flac:07b28e443daa3878b7858ee24d4ec4c5

Shntool

length expanded size cdr WAVE problems fmt ratio filename
5:26.15 57541724 B --- -- ---xx flac 0.5419 higher2012-11-23d01t01.flac
4:17.34 45414812 B --- -- ---xx flac 0.5196 higher2012-11-23d01t02.flac
3:46.56 39998156 B --- -- ---xx flac 0.5181 higher2012-11-23d01t03.flac
4:29.06 47465756 B --- -- ---xx flac 0.5285 higher2012-11-23d01t04.flac
4:22.51 46336796 B --- -- ---xx flac 0.5443 higher2012-11-23d01t05.flac
5:25.72 57499388 B --- -- ---xx flac 0.4953 higher2012-11-23d01t06.flac
3:36.44 38205932 B --- -- ---xx flac 0.5599 higher2012-11-23d01t07.flac
5:57.04 62984252 B --- -- ---xx flac 0.5200 higher2012-11-23d01t08.flac
6:18.13 66709820 B --- -- ---xx flac 0.4913 higher2012-11-23d01t09.flac
4:26.13 46953020 B --- -- ---xx flac 0.5363 higher2012-11-23d01t10.flac
48:06.08 509109656 B 0.5232 (10 files)










Checksumshigher2012-11-23d01t01.flac:afa5888fd382623ef063ed30c4fa49ae
higher2012-11-23d01t02.flac:fb39f36040787e9d05c0bee90a479011
higher2012-11-23d01t03.flac:1894a6791c181bd7a9dd3cafae66e8c0
higher2012-11-23d01t04.flac:d40828161fab0dcb255af606edb08d5b
higher2012-11-23d01t05.flac:eebe50d01c0b8fe6856edde2f23a9b02
higher2012-11-23d01t06.flac:6354c5c0b06b83eb1298f1099ec26789
higher2012-11-23d01t07.flac:732a3ad2d43662087a105cdf038c5249
higher2012-11-23d01t08.flac:698405aa5ee3a2d0e631dae52c78dcae
higher2012-11-23d01t09.flac:6ab9d04ac93fbc652921df21bbcf4929
higher2012-11-23d01t10.flac:07b28e443daa3878b7858ee24d4ec4c5
TypeOther
Last seederLast activity 20:15 ago
Size254.05 MB (266387674 Bytes)
Added2012-11-25 20:59:36
Views0
Hits130
Snatched13 times
Upped byzmanatl
Num files
[See full list]
11 files
Peers
[See full list]
0 seeders, 1 leecher = 1 peer total

No comments yet

Add a comment


http://etree.org : http://db.etree.org : http://forums.etree.org : http://wiki.etree.org : Legal : RSS Feed

Contents designed & maintained by the etree.org volunteers
1998-2014, etree.org, except where noted. All Rights Reserved.
Read our terms of service and privacy guidelines