bt.etree.org
etree.org Community Bittorrent Tracker
ArtistGovt Mule
ShowGov`t Mule 1998-05-02 Atlanta, Georgia, USA - Cotton Club (SoundBoard)
Report this as
non-Trade-Friendly
Email us
TorrentGov`t Mule 1998-05-02.torrent (click to download)
Downloads asGov`t Mule 1998-05-02
Info hash0ebe81da8b9e86d9b0a5f288aca0bb2a62f2b2b7
DescriptionBELOW IS A PREVIOUS OFFER OF THIS SAME SHOW, DIFFERENT SOURCE.
THIS IS A DEFINITE "DAUD" SOURCE, & NOT THE COMMONLY CIRCULATED "SBD" SOURCE.
SETLIST & MASTERING WILL NEED TO BE DONE, EVENTUALLY.

************************************************************************
Gov't Mule .... May 2, 1998
Cotton Club, Atlanta, Georgia, USA

source: SoundBoard> DAT (master)
transfer: DAT (Tascam DA20)> Acoustic
Research Coax> S/PDIF (audiophile24/96
[rev.B])> AIFF (Peak4.03/Mac)> shntool>
FLAC (xACT)
- possibly taped by EROK173 (Home Team)
- transfered, tweeked and seeded by JTL
(HomeTeam)
- recorded and transfered @ 16/48 - con-
verted to 16/44
- gain raised +3.5db on entire recording
- fades added to start & end of recording
- minor level fluctuations during d1t05
(on DAT)
- Mullet factor at an even / 1:1 ratio
(spillover from Music Midtown)
16 tracks = 103:13 minutes

Reseeded by BluesOxator

- disc 1 -
01. 'crowd and tuning'
02. Pygmy Twylyte >
03. Doncha' Ever Wash That Thang?
04. Pygmy Twylyte >
05. Rocking Horse >
06. No Need To Suffer
07. Birth Of The Mule
08. Mr. Big
09. Nasty Dogs & Funky Kings
10. Trane

- disc 2 -
01. Lively Up Yourself
02. 'Warren's Solo'>
03. Gambler's Roll
04. Kind Of Bird
05 'crowd, tuning and stage banter'
- encore -
06. Spanish Moon *

* Bill McKay on keyboards and Bill Healy
on guitar

Checksumsshntool output:<br />
length expanded size cdr WAVE problems filename<br />
0:38.22 6754988 --- -- ---xx mule1998-05-02d1t01.flac<br />
2:14.42 23736428 --- -- ---xx mule1998-05-02d1t02.flac<br />
1:33.15 16440524 --- -- ---xx mule1998-05-02d1t03.flac<br />
0:58.20 10278284 --- -- ---xx mule1998-05-02d1t04.flac<br />
5:09.74 54681692 --- -- ---xx mule1998-05-02d1t05.flac<br />
9:51.22 104304188 --- -- ---xx mule1998-05-02d1t06.flac<br />
9:09.11 96869516 --- -- ---xx mule1998-05-02d1t07.flac<br />
7:39.07 80984108 --- -- ---xx mule1998-05-02d1t08.flac<br />
4:40.14 49424972 --- -- ---xx mule1998-05-02d1t09.flac<br />
7:33.36 79993916 --- -- ---xx mule1998-05-02d1t10.flac<br />
11:47.05 124726604 --- -- ---xx mule1998-05-02d2t01.flac<br />
1:07.61 11962316 --- -- ---xx mule1998-05-02d2t02.flac<br />
8:34.03 90676700 --- -- ---xx mule1998-05-02d2t03.flac<br />
9:55.12 104986268 --- -- ---xx mule1998-05-02d2t04.flac<br />
7:26.31 78747356 --- -- ---xx mule1998-05-02d2t05.flac<br />
14:55.68 158037980 --- -- ---xx mule1998-05-02d2t06.flac<br />
103:13.68 1092605840 B (totals for 16 files, 0.4856 overall compression ratio)<br />
---------------------------------------------------------------------------------<br />
FLAC fingerprints:<br />
mule1998-05-02d1t01.flac:34eba99e8e0f6def4a1fb69c305bd532<br />
mule1998-05-02d1t02.flac:c01f4503ea6f00157991c50ec654bd84<br />
mule1998-05-02d1t03.flac:d990b0399d840118ec2679e5238f8803<br />
mule1998-05-02d1t04.flac:c51a45cdcb19b291d9576ca651545486<br />
mule1998-05-02d1t05.flac:8b7a4aba2db7e98eaa3877e5311a6927<br />
mule1998-05-02d1t06.flac:624e9aeb186f672e922c00c16d778b2e<br />
mule1998-05-02d1t07.flac:df4b27d15aaeab8eaa344532d0079ab4<br />
mule1998-05-02d1t08.flac:99592b360074983f10d2217044f169ac<br />
mule1998-05-02d1t09.flac:b640bc1a32ae2b51415df9c022acfc62<br />
mule1998-05-02d1t10.flac:c4ea070f301c3982cb0f7f397885b076<br />
<br />
mule1998-05-02d2t01.flac:4ef95e9feb237994ee8e14af37d5ffa2<br />
mule1998-05-02d2t02.flac:72bf5497eea255fb5c8deef96e20243a<br />
mule1998-05-02d2t03.flac:d1bcc7eec8b28b198249ffac0fe4c7a5<br />
mule1998-05-02d2t04.flac:327eaa59bfc2bac1c10c7d696ddef7f8<br />
mule1998-05-02d2t05.flac:c2059d0850222d49e7ea0506b5c0fccf<br />
mule1998-05-02d2t06.flac:876f9d8e50d829a8c7165cd0bfab3170
TypeGovt Mule
Last seederLast activity 18:36 ago
Size558.69 MB (585824337 Bytes)
Added2012-11-29 06:49:14
Views0
Hits439
Snatched219 times
Upped byBlusOxator
Num files20 files
File List
[Hide list]
filenamesizemd5
GM1998-05-02.jpg163.2 kBN/A
gm1998-05-02DAUD(2nd-show)CottonClub,Atlanta,GA.ffp1.0 kBN/A
gm1998-05-02DAUD(2nd-show)CottonClub,Atlanta,GA.md51.1 kBN/A
gm1998-05-02DAUD(2nd-show)CottonClub,Atlanta,GA.txt3.7 kBN/A
gm1998-05-02DAUD(2nd-show)D1T01.flac3.76 MBN/A
gm1998-05-02DAUD(2nd-show)D1T02.flac30.03 MBN/A
gm1998-05-02DAUD(2nd-show)D1T03.flac29.05 MBN/A
gm1998-05-02DAUD(2nd-show)D1T04.flac56.14 MBN/A
gm1998-05-02DAUD(2nd-show)D1T05.flac49.71 MBN/A
gm1998-05-02DAUD(2nd-show)D1T06.flac42.18 MBN/A
gm1998-05-02DAUD(2nd-show)D2T01.flac1.02 MBN/A
gm1998-05-02DAUD(2nd-show)D2T02.flac28.89 MBN/A
gm1998-05-02DAUD(2nd-show)D2T03.flac44.13 MBN/A
gm1998-05-02DAUD(2nd-show)D2T04.flac65.43 MBN/A
gm1998-05-02DAUD(2nd-show)D2T05.flac4.99 MBN/A
gm1998-05-02DAUD(2nd-show)D2T06.flac45.30 MBN/A
gm1998-05-02DAUD(2nd-show)D2T07.flac59.54 MBN/A
gm1998-05-02DAUD(2nd-show)D2T08.flac9.40 MBN/A
gm1998-05-02DAUD(2nd-show)D2T09.flac88.00 MBN/A
Gov`t Mule 1998-05-02 front.jpg988.5 kBN/A
Peers
[See full list]
1 seeder, 0 leechers = 1 peer total

Add a comment

Tom_of_Mule 2012-11-29 09:45:08
Thank you !
Tom
Tomahawk Kid 2012-11-29 16:44:20
Thank you very much!
sprobeck 2012-11-29 18:10:03
THanks~
mule___ryder 2012-12-01 10:20:40
ty for sharing!

-ryder

Add a comment


http://etree.org : http://db.etree.org : http://forums.etree.org : http://wiki.etree.org : Legal : RSS Feed

Contents designed & maintained by the etree.org volunteers
1998-2014, etree.org, except where noted. All Rights Reserved.
Read our terms of service and privacy guidelines