bt.etree.org
etree.org Community Bittorrent Tracker
ArtistOther
ShowThe Mother Hips Middle East Upstairs Cambridge, Massachusetts 11/28/2012 (Schoeps CCM4V'S FOB)
Report this as
non-Trade-Friendly
Email us
Torrentmotherhips2012-11-28.flac16.torrent (click to download)
Downloads asmotherhips2012-11-28.flac16
Info hash41f51ceeb809603e343b77983cbd23be438053fe
DescriptionThe Mother Hips
Middle East - Upstairs
Cambridge, Massachusetts
11/28/2012

Source: Schoeps CCM4V'S(din)>Lunatec V2>Benchmark AD2K>
Sound Devices 722 (24/48)
FOB/DFC/KFC/ZFC/AARP 18' From Stage, 7' High
DSP: Sound Devices 722>Sound Forge 9.0>CD Wave>flac(16)
Recorded By: Z-Man
Seeded By: Z-Man

Disc I

01 Tuning
02 Smoke >
03 Esmerelda
04 Honeydew >
05 Been Lost Once
06 *Whiskey On Southbound
07 *Later Days
08 Intro Jam To Magazine >
09 Magazine >
10 White Falcon Fuzz

Disc II

01 Chum >
02 Young Charles Ives >
03 Time-Sick Son Of A Grizzly Bear >
04 3rd Floor Story >
05 Can't Sleep At All
Encore
06 Tuning
07 Rose Of Rainbows >
08 Stoned Up The Road

* With Jonathan of Natinoal Reserve On Pedal Steel

Flac Fingerprint

motherhips2012-11-28d01t01.flac:3d57b1476bd0c6c9540d7c466ef4f362
motherhips2012-11-28d01t02.flac:0d139ae6be2251120a7f11e9a045487d
motherhips2012-11-28d01t03.flac:6d8719cf015615d67053cf416f9dc896
motherhips2012-11-28d01t04.flac:324d8f10ac1c6819d335317fab3a3041
motherhips2012-11-28d01t05.flac:1e5e04485ccb35fca46d23993e2dfc67
motherhips2012-11-28d01t06.flac:ff00040511c41096c0775e6aff85b7ad
motherhips2012-11-28d01t07.flac:66b8124b5472c7dd5cece886e46c66cc
motherhips2012-11-28d01t08.flac:b832de2db29a95f12dff7979f1d909d4
motherhips2012-11-28d01t09.flac:8488109c41118f6a3b1d4ea7d129f4bb
motherhips2012-11-28d01t10.flac:53d982e57b6f4b426e5b4f15f6a6891b
motherhips2012-11-28d02t01.flac:609d6efd78ddb5a7b9beda3f7ac0f222
motherhips2012-11-28d02t02.flac:93c5b346095cc88e537b2bfc5bb379ae
motherhips2012-11-28d02t03.flac:263922c1d161aa036fc8749e6616c3cd
motherhips2012-11-28d02t04.flac:b8fb57bcfeca869d63d5c96ccfacaa01
motherhips2012-11-28d02t05.flac:507770bb87b1546f30537e7c12113d36
motherhips2012-11-28d02t06.flac:b6c4e0d197a055014315a18a81e56e43
motherhips2012-11-28d02t07.flac:19a5939d494fe0bbd6c96e4922b27bcc
motherhips2012-11-28d02t08.flac:9c47dd0bfb558942bc01009851673983

Shntool

length expanded size cdr WAVE problems fmt ratio filename
0:34.09 6018812 B --- -- ---xx flac 0.3546 motherhips2012-11-28d01t01.flac
3:54.49 41392892 B --- -- ---xx flac 0.5604 motherhips2012-11-28d01t02.flac
3:19.72 35272988 B --- -- ---xx flac 0.6010 motherhips2012-11-28d01t03.flac
5:27.56 57814556 B --- -- ---xx flac 0.5642 motherhips2012-11-28d01t04.flac
6:53.35 72935564 B --- -- ---xx flac 0.5086 motherhips2012-11-28d01t05.flac
3:29.59 37006412 B --- -- ---xx flac 0.5056 motherhips2012-11-28d01t06.flac
3:38.44 38558732 B --- -- ---xx flac 0.5184 motherhips2012-11-28d01t07.flac
1:54.39 20201372 B --- -- ---xx flac 0.3842 motherhips2012-11-28d01t08.flac
8:15.12 87346268 B --- -- ---xx flac 0.5993 motherhips2012-11-28d01t09.flac
4:27.59 47237612 B --- -- ---xx flac 0.5708 motherhips2012-11-28d01t10.flac
13:32.01 143239196 B --- -- ---xx flac 0.5337 motherhips2012-11-28d02t01.flac
5:02.45 53378684 B --- -- ---xx flac 0.5575 motherhips2012-11-28d02t02.flac
3:17.06 34764956 B --- -- ---xx flac 0.5207 motherhips2012-11-28d02t03.flac
4:57.39 52482572 B --- -- ---xx flac 0.6058 motherhips2012-11-28d02t04.flac
6:18.10 66702764 B --- -- ---xx flac 0.5828 motherhips2012-11-28d02t05.flac
1:05.19 11510732 B --- -- ---xx flac 0.3008 motherhips2012-11-28d02t06.flac
7:01.06 74278556 B --- -- ---xx flac 0.5346 motherhips2012-11-28d02t07.flac
5:41.37 60239468 B --- -- ---xx flac 0.5476 motherhips2012-11-28d02t08.flac
88:50.72 940382136 B 0.5457 (18 files)







Checksumsmotherhips2012-11-28d01t01.flac:3d57b1476bd0c6c9540d7c466ef4f362
motherhips2012-11-28d01t02.flac:0d139ae6be2251120a7f11e9a045487d
motherhips2012-11-28d01t03.flac:6d8719cf015615d67053cf416f9dc896
motherhips2012-11-28d01t04.flac:324d8f10ac1c6819d335317fab3a3041
motherhips2012-11-28d01t05.flac:1e5e04485ccb35fca46d23993e2dfc67
motherhips2012-11-28d01t06.flac:ff00040511c41096c0775e6aff85b7ad
motherhips2012-11-28d01t07.flac:66b8124b5472c7dd5cece886e46c66cc
motherhips2012-11-28d01t08.flac:b832de2db29a95f12dff7979f1d909d4
motherhips2012-11-28d01t09.flac:8488109c41118f6a3b1d4ea7d129f4bb
motherhips2012-11-28d01t10.flac:53d982e57b6f4b426e5b4f15f6a6891b
motherhips2012-11-28d02t01.flac:609d6efd78ddb5a7b9beda3f7ac0f222
motherhips2012-11-28d02t02.flac:93c5b346095cc88e537b2bfc5bb379ae
motherhips2012-11-28d02t03.flac:263922c1d161aa036fc8749e6616c3cd
motherhips2012-11-28d02t04.flac:b8fb57bcfeca869d63d5c96ccfacaa01
motherhips2012-11-28d02t05.flac:507770bb87b1546f30537e7c12113d36
motherhips2012-11-28d02t06.flac:b6c4e0d197a055014315a18a81e56e43
motherhips2012-11-28d02t07.flac:19a5939d494fe0bbd6c96e4922b27bcc
motherhips2012-11-28d02t08.flac:9c47dd0bfb558942bc01009851673983
TypeOther
Last seederLast activity 16:47:27 ago
Size489.38 MB (513156212 Bytes)
Added2012-11-29 09:31:13
Views0
Hits248
Snatched69 times
Upped byzmanatl
Num files
[See full list]
19 files
Seeders
[Hide list]
0 Seeder(s)
Leechers
[Hide list]
0 Leecher(s)

Add a comment

romasb 2012-11-29 13:30:11
Woohoo! There's definitely not enough Hips around here ... Thanks so much for taping and sharing. Cheers from Germany.
shmc 2012-11-29 14:45:41
a big ole hells yeahs...thx man
sizehump 2012-11-29 15:18:24
Thanks for this!
romasb 2012-11-29 16:00:06
Isn't that amazing: The show was yesterday, and here I am in Germany, only 24 hours later, having listened to the whole thing in excellent quality from beginning to end. On my couch, with a nice glass of red wine. Saw my first Hips show 15 years ago at the Catalyst while I was an exchange student at UCSC. Been collecting their tapes ever since. Saw my second show this summer when they finally made it to Germany and played the Zappanale. Life is great. Thanks Z-Man for all the effort you put into your recordings. I've listened to tons of 'em and they're much appreciated over here. ;-)
greazychicken 2012-11-30 02:50:02
thank you very much :)
potto55 2012-11-30 23:42:31
WooHoo2 - thanks for the Hips. Great quality.
greenchilevoodoo 2012-12-03 15:13:46
Fantastic. Thanks! I was at the show the next night in NYC at the Highline Ballroom. Great show and it was nice to catch the Back to the Grotto set. Anybody know if that one was recorded by chance?

Add a comment


http://etree.org : http://db.etree.org : http://forums.etree.org : http://wiki.etree.org : Legal : RSS Feed

Contents designed & maintained by the etree.org volunteers
1998-2014, etree.org, except where noted. All Rights Reserved.
Read our terms of service and privacy guidelines