bt.etree.org
etree.org Community Bittorrent Tracker
ArtistGrateful Dead
Showgd82-04-03.96069.sbd.miller.t-flac16
Report this as
non-Trade-Friendly
Email us
Torrentgd82-04-03.96069.sbd.miller.sbeok.t-flac16.torrent (click to download)
Downloads asgd82-04-03.96069.sbd.miller.sbeok.t-flac16
Info hash7f261ad38576ca4d522efd6752e61771b43ac43d
db linkhttp://db.etree.org/shn/96069 | Show | Source
DescriptionThis is a tagged version of shnid: 96069

Grateful Dead
April 3, 1982
Scope
Norfolk, VA

Recording Info:
SBD -> Cassette Master -> ? -> Cassette -> CD

Transfer Info:
CD -> Samplitude Professional v10.1 -> FLAC
(3 Discs Audio / 2 Discs FLAC)

All Transfers and Mastering By Charlie Miller
charliemiller87@earthlink.net
November 24, 2008

Patch Info:
(FOB) Nakamichi 700 -> Cassette Master -> Dat -> CD (shnid=82757) supplies:
Alabama Getaway (complete track)
Greatest Story Ever Told (complete track)
They Love Each Other (0:00 - 1:52)
Bird Song (5:39 - 8:55)
Althea (7:09 - end of track)
Let It Grow (0:00 - 0:47)
Eyes Of The World (9:07 - 9:21)
Drums (0:48 - 5:40)
U.S. Blues (complete track)

Notes:
-- All disc changes are seamless
-- This is far from perfect but well worth getting
-- Thanks to Matt Smith for the discs
______________________________________________________________________

--Set 1--
101-d1t01 - Alabama Getaway ->
102-d1t02 - Greatest Story Ever Told
103-d1t03 - They Love Each Other
104-d1t04 - Me And My Uncle ->
105-d1t05 - Big River
106-d1t06 - Peggy-O ->
107-d1t07 - C C Rider
108-d1t08 - Bird Song
109-d1t09 - It's All Over Now
110-d2t01 - Althea ->
111-d2t02 - Let It Grow

--Set 2--
201-d2t03 - Scarlet Begonias ->
202-d2t04 - Fire on the Mountain ->
203-d2t05 - Estimated Prophet ->
204-d2t06 - Eyes of the World ->
205-d2t07 - Never Trust a Woman ->
206-d3t01 - Drums ->
207-d3t02 - Space ->
208-d3t03 - Not Fade Away ->
209-d3t04 - Stella Blue ->
210-d3t05 - One More Saturday Night

--Encore--
211-d3t06 - U.S. Blues
______________________________________________________________________

Tagging notes:
Show information is embedded within the header of each flac file.
It will display on any player capable of directly playing flac
files. If converted to wav during processing, all tags will be
stripped, however audio data will remain unaffected. If you must
transcode to a lossy format, do so directly Flac > Lossy.
Use ffp to validate audio integrity.
Md5 values will change if tagging is altered.
B. Proctor 12-18-10
______________________________________________________________________

SHNTOOL OUTPUT:
length expanded size cdr WAVE problems filename
5:38.72 59792588 --- -- ----- gd82-04-03d1t01.wav
5:00.62 53065868 --- -- ----- gd82-04-03d1t02.wav
8:17.41 87767276 --- -- ----- gd82-04-03d1t03.wav
2:56.32 31121708 --- -- ----- gd82-04-03d1t04.wav
5:42.55 60458204 --- -- ----- gd82-04-03d1t05.wav
8:10.08 86454860 --- -- ----- gd82-04-03d1t06.wav
9:57.48 105423740 --- -- ----- gd82-04-03d1t07.wav
11:18.20 119646284 --- -- ----- gd82-04-03d1t08.wav
8:10.06 86450156 --- -- ----- gd82-04-03d1t09.wav
7:42.33 81574460 --- -- ----- gd82-04-03d2t01.wav
13:04.58 138434060 --- -- ----- gd82-04-03d2t02.wav
14:16.38 151087820 --- -- ----- gd82-04-03d2t03.wav
11:05.21 117355436 --- -- ----- gd82-04-03d2t04.wav
11:23.44 120584732 --- -- ----- gd82-04-03d2t05.wav
9:27.51 100138796 --- -- ----- gd82-04-03d2t06.wav
8:19.52 88145948 --- -- ----- gd82-04-03d2t07.wav
7:16.49 77025692 --- -- ----- gd82-04-03d3t01.wav
2:52.27 30404348 --- -- ----- gd82-04-03d3t02.wav
10:56.36 115803116 --- -- ----- gd82-04-03d3t03.wav
8:57.31 94799756 --- -- ----- gd82-04-03d3t04.wav
5:06.38 54067820 --- -- ----- gd82-04-03d3t05.wav
5:24.50 57271244 --- -- ----- gd82-04-03d3t06.wav
181:06.47 1916873912 B (totals for 22 files)
Checksumsgd82-04-03d1t01.flac:3b314bccf43069e14a032d4c3a854f27
gd82-04-03d1t02.flac:4216a6a4b1ce8e01e6e50d5197be7fcd
gd82-04-03d1t03.flac:544eb7140d2ddf12a6564c3443e4bf2e
gd82-04-03d1t04.flac:1e0deea8bb4f3a19a187d9ccae12fdc8
gd82-04-03d1t05.flac:a05f4c6576e29390e8bccb33e40e4c0d
gd82-04-03d1t06.flac:b80b3fd3ee04210535afb6a5d577fa07
gd82-04-03d1t07.flac:7f145c66c93b7f706b1b20e3723686bb
gd82-04-03d1t08.flac:a4aafcca5b0f40b3e413aa58a65683c9
gd82-04-03d1t09.flac:edb2dc8369d1c4bcfae2bc27aed7708a
gd82-04-03d2t01.flac:83c906a0fee50322cb622aa382c9edbb
gd82-04-03d2t02.flac:cc449dd535ba56b2707a549b2eeb6690
gd82-04-03d2t03.flac:56dc3320127a094c57df33c34553df77
gd82-04-03d2t04.flac:b5836fded77af06119e2fef0764a5929
gd82-04-03d2t05.flac:c8d631aa954596b7b2d762441db77dea
gd82-04-03d2t06.flac:6f107344396796667708fa1c993865d3
gd82-04-03d2t07.flac:8baab5ffb13165a844ac9a17b00f27a4
gd82-04-03d3t01.flac:a69fddc9d60c64103b048d0d33b5ef10
gd82-04-03d3t02.flac:915f8ec8f2dcdf8aa31f56da2323aa4f
gd82-04-03d3t03.flac:19cf6bf82339df3dc364e78be5984ee0
gd82-04-03d3t04.flac:cee2a1793599d6ab9b599c8acd172e56
gd82-04-03d3t05.flac:2267d2777953411217ac80b6e5639916
gd82-04-03d3t06.flac:ea01a1c8b33ec5e5d9c16c11fd7ab3aa
TypeGrateful Dead
Last seederLast activity 24:34 ago
Size1.084 GB (1163922935 Bytes)
Added2012-11-30 08:41:01
Views0
Hits569
Snatched351 times
Upped bygermain
Num files
[See full list]
25 files
Peers
[See full list]
2 seeders, 0 leechers = 2 peers total

Add a comment

firemt66 2012-12-01 17:58:57
thanks!!! had copy from someone that went to the show ..old copy got it in a parking lot in charlotte 91
Pisces 2014-06-29 21:40:36
Thanks!

Add a comment


http://etree.org : http://db.etree.org : http://forums.etree.org : http://wiki.etree.org : Legal : RSS Feed

Contents designed & maintained by the etree.org volunteers
1998-2014, etree.org, except where noted. All Rights Reserved.
Read our terms of service and privacy guidelines