bt.etree.org
etree.org Community Bittorrent Tracker
ArtistGrateful Dead
Showgd82-04-03.119009.s2.sbd.seaweed.flac16
Report this as
non-Trade-Friendly
Email us
Torrentgd82-04-03.119009.s2.sbd.seaweed.flac16.torrent (click to download)
Downloads asgd82-04-03.119009.s2.sbd.seaweed.flac16
Info hashfdc884e6d8f67a0fd9a7d62697b618e8f68e4be8
db linkhttp://db.etree.org/shn/119009 | Show | Source
DescriptionGRATEFUL DEAD
The Scope
Norfolk VA
04-03-1982
Second Set

Source: SBD > ? > Lo-gen Cassette, kindly provided by Seaweed1010.

Transfer: Maxell MX90 > Nakamichi DR-2 > Edirol FA-66 > Wavelab >
R8Brain > CD-Wave > TLH > FLAC 1644 tagged. Transfer by Andrew F.
02/2012

Notes: Improved sound quality compared to ID-96069, ymmv. ID-112827
patches: Eyes 9:12 > 9:21, Drums 0:50 > 5:38, US Blues 3:03 > 5:29.

s2t01 Scarlet Begonias >
s2t02 Fire on the Mountain
s2t03 Estimated Prophet >
s2t04 Eyes of the World >
s2t05 Good Time Blues (Never Trust a Woman) >
s2t06 Drums >
s2t07 Space >
s2t08 Not Fade Away >
s2t09 Stella Blue >
s2t10 One More Saturday Night
s2t11 Encore: U.S. Blues



2aa02c360a05ca33206f2ccb41561641 *gd1982-04-03s2t01.flac
8688c1a5efa0a27c98235e83b39f410f *gd1982-04-03s2t02.flac
45f0edfd835fe1bfbe6342eac11048a0 *gd1982-04-03s2t03.flac
38b19361e7aeb51c5598caf9f8ffd230 *gd1982-04-03s2t04.flac
b0032557e30577221b8fbc4479b151f0 *gd1982-04-03s2t05.flac
9c3ec80934ef280f896b3af9dd575d38 *gd1982-04-03s2t06.flac
46f3d333a5ae1c1770d055fa24483f5c *gd1982-04-03s2t07.flac
d9aaafd1ddac171745e8a4d1ff68ad75 *gd1982-04-03s2t08.flac
45b91083a1897166368d18496ae8306f *gd1982-04-03s2t09.flac
e735253cbfde25309664fbf6872eed17 *gd1982-04-03s2t10.flac
fc4713645a522712e2be08b29fe882d2 *gd1982-04-03s2t11.flac

gd1982-04-03s2t01.flac:cd8e379be7a19fd6b946d6e8129a7f3c
gd1982-04-03s2t02.flac:1db9a44fd623c7678b99fa9ec65023e5
gd1982-04-03s2t03.flac:c2d2a0d5e618c940c1503ce1803a42f5
gd1982-04-03s2t04.flac:2baf52f1efe0621c443563f2c9c48b3c
gd1982-04-03s2t05.flac:4caecffa61c8b822e2ffb1ce8772d89e
gd1982-04-03s2t06.flac:a76cedd0196b6d935508de78f2b01e9a
gd1982-04-03s2t07.flac:948f1f917227888a5381186bd1ba71a8
gd1982-04-03s2t08.flac:49766aada57acd70cbed025b90315adc
gd1982-04-03s2t09.flac:2598fc77c723e636c5820758c2c72270
gd1982-04-03s2t10.flac:3ba607d24d872956c20d6ae4c9b46da0
gd1982-04-03s2t11.flac:ef2978b0fa9dfafd35886760f6aa01da

length expanded size cdr WAVE problems fmt ratio filename
14:31.23 153698540 B --- -- ---xx flac 0.6199 gd1982-04-03s2t01.flac
11:07.32 117734108 B --- -- ---xx flac 0.5970 gd1982-04-03s2t02.flac
11:24.50 120775244 B --- -- ---xx flac 0.5938 gd1982-04-03s2t03.flac
9:30.46 100656236 B --- -- ---xx flac 0.6155 gd1982-04-03s2t04.flac
8:29.29 89855852 B --- -- ---xx flac 0.6137 gd1982-04-03s2t05.flac
7:14.69 76719932 B --- -- ---xx flac 0.5664 gd1982-04-03s2t06.flac
2:56.48 31159340 B --- -- ---xx flac 0.5732 gd1982-04-03s2t07.flac
11:10.63 118336220 B --- -- ---xx flac 0.6074 gd1982-04-03s2t08.flac
8:55.64 94524572 B --- -- ---xx flac 0.5957 gd1982-04-03s2t09.flac
4:39.53 49340300 B --- -- ---xx flac 0.6402 gd1982-04-03s2t10.flac
5:29.18 58077980 B --- -- ---xx flac 0.6438 gd1982-04-03s2t11.flac
95:30.45 1010878324 B 0.6063 (11 files)

No errors occured.
Checksumsgd1982-04-03s2t01.flac:cd8e379be7a19fd6b946d6e8129a7f3c<br />
gd1982-04-03s2t02.flac:1db9a44fd623c7678b99fa9ec65023e5<br />
gd1982-04-03s2t03.flac:c2d2a0d5e618c940c1503ce1803a42f5<br />
gd1982-04-03s2t04.flac:2baf52f1efe0621c443563f2c9c48b3c<br />
gd1982-04-03s2t05.flac:4caecffa61c8b822e2ffb1ce8772d89e<br />
gd1982-04-03s2t06.flac:a76cedd0196b6d935508de78f2b01e9a<br />
gd1982-04-03s2t07.flac:948f1f917227888a5381186bd1ba71a8<br />
gd1982-04-03s2t08.flac:49766aada57acd70cbed025b90315adc<br />
gd1982-04-03s2t09.flac:2598fc77c723e636c5820758c2c72270<br />
gd1982-04-03s2t10.flac:3ba607d24d872956c20d6ae4c9b46da0<br />
gd1982-04-03s2t11.flac:ef2978b0fa9dfafd35886760f6aa01da<br />
TypeGrateful Dead
Last seederLast activity 17 days, 14:41:45 ago
Size584.48 MB (612867392 Bytes)
Added2012-11-30 08:42:59
Views0
Hits315
Snatched129 times
Upped bygermain
Num files
[See full list]
14 files
Seeders
[Hide list]
0 Seeder(s)
Leechers
[Hide list]
0 Leecher(s)

Add a comment

geewiz010 2012-12-09 20:12:28
Thanks for this!

Add a comment


http://etree.org : http://db.etree.org : http://forums.etree.org : http://wiki.etree.org : Legal : RSS Feed

Contents designed & maintained by the etree.org volunteers
1998-2014, etree.org, except where noted. All Rights Reserved.
Read our terms of service and privacy guidelines