bt.etree.org
etree.org Community Bittorrent Tracker
ArtistOther
ShowNew Orleans Suspects 2012-10-19 Lake Worth, FL - Schoeps cmc6/mk4v - w/ Paul & Fred
Report this as
non-Trade-Friendly
Email us
Torrentnos2012-10-19.cmc6-mk4v.cafiero.ford.sbeok.flac16.torrent (click to download)
Downloads asnos2012-10-19.cmc6-mk4v.cafiero.ford.sbeok.flac16
Info hash49503311f291a208f7a2a775cb315af8bf5af809
DescriptionNew Orleans Suspects
20012-10-19 - Friday
Bamboo Room
Lake Worth, FL

Source: Schoeps cmc6/mk4v > Tascam DR-680 (@ 24/44.1)

Lineage: SD> .wav @ 24/44.1> WaveLab 7.2.1> UV22HR> .wav @ 16.44.1> xAct> flac16

Taped and transferred by Chris Cafiero
Edited and mastered by Alex Ford

CD I:

01. Intro/tuning
02. Country Side Of Life
03. It's Your Life
04. 36 Cars
05. Band Intros
06. Loose Lucy
07. Swampthang
08. Willie's Second Line
09. Dixie Chicken *
10. Food For Thot *

CD II:

01. Hey Pockey Way *
02. Skin It Back *
03. Big Chief *
04. Spanish Moon *
Encore:
05. Tipitina *



Comments:

- * w/ Paul Barrere and Fred Tackett of Little Feat


Notes:

- SBE Free
- Tracked in WaveLab 7.2.1, meta tagged with xAct 2.2.0
- All editing with UAD-2 in 24/44.1


length expanded size cdr WAVE problems fmt ratio filename
3:35.30 37996604 B --- -- ----- wav 1.0000 nos2012-10-19.cmc6-mk4v-cafiero.ford-d1t01.wav
8:23.15 88764524 B --- -- ----- wav 1.0000 nos2012-10-19.cmc6-mk4v-cafiero.ford-d1t02.wav
6:48.68 72131180 B --- -- ----- wav 1.0000 nos2012-10-19.cmc6-mk4v-cafiero.ford-d1t03.wav
6:24.37 67824668 B --- -- ----- wav 1.0000 nos2012-10-19.cmc6-mk4v-cafiero.ford-d1t04.wav
1:11.29 12592652 B --- -- ----- wav 1.0000 nos2012-10-19.cmc6-mk4v-cafiero.ford-d1t05.wav
8:55.58 94510460 B --- -- ----- wav 1.0000 nos2012-10-19.cmc6-mk4v-cafiero.ford-d1t06.wav
7:33.03 79916300 B --- -- ----- wav 1.0000 nos2012-10-19.cmc6-mk4v-cafiero.ford-d1t07.wav
6:57.73 73730540 B --- -- ----- wav 1.0000 nos2012-10-19.cmc6-mk4v-cafiero.ford-d1t08.wav
11:55.28 126191900 B --- -- ----- wav 1.0000 nos2012-10-19.cmc6-mk4v-cafiero.ford-d1t09.wav
9:00.30 95326604 B --- -- ----- wav 1.0000 nos2012-10-19.cmc6-mk4v-cafiero.ford-d1t10.wav
13:24.33 141903260 B --- -- ----- wav 1.0000 nos2012-10-19.cmc6-mk4v-cafiero.ford-d2t01.wav
12:11.07 128964908 B --- -- ----- wav 1.0000 nos2012-10-19.cmc6-mk4v-cafiero.ford-d2t02.wav
12:50.69 135990332 B --- -- ----- wav 1.0000 nos2012-10-19.cmc6-mk4v-cafiero.ford-d2t03.wav
10:03.57 106503308 B --- -- ----- wav 1.0000 nos2012-10-19.cmc6-mk4v-cafiero.ford-d2t04.wav
11:35.03 122605100 B --- -- ----- wav 1.0000 nos2012-10-19.cmc6-mk4v-cafiero.ford-d2t05.wav
130:51.15 1384952340 B 1.0000 (15 files)
ChecksumsFFP:<br />
<br />
nos2012-10-19.cmc6-mk4v-cafiero.ford-d1t01.flac:1a5af963c655be0f704c55bee7b82c24<br />
nos2012-10-19.cmc6-mk4v-cafiero.ford-d1t02.flac:770811adcd414ef94b00d74590f57fb8<br />
nos2012-10-19.cmc6-mk4v-cafiero.ford-d1t03.flac:551eee50abfc4fc6ed8c968c733cc3fa<br />
nos2012-10-19.cmc6-mk4v-cafiero.ford-d1t04.flac:47f4d35e79de930a63db7a1b913e55a7<br />
nos2012-10-19.cmc6-mk4v-cafiero.ford-d1t05.flac:b09b80c9efc1bdc6a16c43484ee13a79<br />
nos2012-10-19.cmc6-mk4v-cafiero.ford-d1t06.flac:8b608fee3848e36b542760cd8befeeef<br />
nos2012-10-19.cmc6-mk4v-cafiero.ford-d1t07.flac:d1b769a4d050bdeb06c544d284bcaaa9<br />
nos2012-10-19.cmc6-mk4v-cafiero.ford-d1t08.flac:f7f5f97a6ec54005a47208242a974cf9<br />
nos2012-10-19.cmc6-mk4v-cafiero.ford-d1t09.flac:158b7a5e012a593066094cab37a14fe8<br />
nos2012-10-19.cmc6-mk4v-cafiero.ford-d1t10.flac:1ccb2d4fc0a9417b2ebebb44c5ea58c7<br />
nos2012-10-19.cmc6-mk4v-cafiero.ford-d2t01.flac:e7ce3e195e56408d2c227b2ca1194f7c<br />
nos2012-10-19.cmc6-mk4v-cafiero.ford-d2t02.flac:f6b25b6cce5d4280ae016b7b5dac40fe<br />
nos2012-10-19.cmc6-mk4v-cafiero.ford-d2t03.flac:43de8c0f81620ab8577b381dc140655c<br />
nos2012-10-19.cmc6-mk4v-cafiero.ford-d2t04.flac:0f5bbadf281babc289d12a6338369e7d<br />
nos2012-10-19.cmc6-mk4v-cafiero.ford-d2t05.flac:b5820690618354761293e35b4353b3a6<br />
<br />
MD5:<br />
<br />
880c633592a1dd3182c331b835e22da6 *nos2012-10-19.cmc6-mk4v-cafiero.ford-d1t01.flac<br />
f1ed725ceef10d2bbe5b066ecb46342e *nos2012-10-19.cmc6-mk4v-cafiero.ford-d1t02.flac<br />
00e1e61e75732f9e3ca44f7ea8b639d0 *nos2012-10-19.cmc6-mk4v-cafiero.ford-d1t03.flac<br />
2e8d8d55dddfeb172d2b279004bdd4f4 *nos2012-10-19.cmc6-mk4v-cafiero.ford-d1t04.flac<br />
9647d7b54884cb615afc0621d54fdb3f *nos2012-10-19.cmc6-mk4v-cafiero.ford-d1t05.flac<br />
ed7ad9f76acbb725c982253e60057b0f *nos2012-10-19.cmc6-mk4v-cafiero.ford-d1t06.flac<br />
85eab17776ccb50a2c942236073c1cd9 *nos2012-10-19.cmc6-mk4v-cafiero.ford-d1t07.flac<br />
387f040d3b66fa28a9cfb0bcced88793 *nos2012-10-19.cmc6-mk4v-cafiero.ford-d1t08.flac<br />
4d63bf6464dece7d4395ff9a7cbdd53d *nos2012-10-19.cmc6-mk4v-cafiero.ford-d1t09.flac<br />
9dcefee9a1dd1d358d80d37d7872cf9e *nos2012-10-19.cmc6-mk4v-cafiero.ford-d1t10.flac<br />
d05a36e617de2944a411733d97201a26 *nos2012-10-19.cmc6-mk4v-cafiero.ford-d2t01.flac<br />
d6aa37ef7975b4e11a3f9d78a79e3115 *nos2012-10-19.cmc6-mk4v-cafiero.ford-d2t02.flac<br />
d7f39c8a42dc06600ec53672aa5608e2 *nos2012-10-19.cmc6-mk4v-cafiero.ford-d2t03.flac<br />
7bb6d4354bee8380f61559b4aa4df041 *nos2012-10-19.cmc6-mk4v-cafiero.ford-d2t04.flac<br />
36678b5dbf7dc09f93c761b105442f6a *nos2012-10-19.cmc6-mk4v-cafiero.ford-d2t05.flac<br />
TypeOther
Last seederLast activity 36 days, 06:38:11 ago
Size760.61 MB (797562272 Bytes)
Added2012-11-30 13:28:14
Views10
Hits236
Snatched89 times
Upped byAlbix
Num files
[See full list]
18 files
Seeders
[Hide list]
0 Seeder(s)
Leechers
[Hide list]
0 Leecher(s)

Add a comment

Albix 2012-11-30 13:59:09
Nice, clear, crisp sound. Thanks to Chris! Great jams w/ Paul and Fred. Enjoy!
okebo 2012-11-30 14:08:48
Thank you! I was hoping this would show up. Track #8 is Willie's second line.
Albix 2012-11-30 14:12:44
Ty!
okebo 2012-11-30 14:28:44
Track #4 is 36 Cars
okebo 2012-11-30 15:29:31
Track #7 is Swampthang and to be totally anal, Track #10 is Food For Thot

Thanks again for this one!
achipar 2012-11-30 23:59:08
since we're being totally anal, guess I ought to grab this
thanks recorder and u/l'er
bigdaddybflo 2012-12-01 13:18:33
Sickness !! Thanks for the love.
Albix 2012-12-01 17:10:43
Now on the LMA ~> http://archive.org/details/nos2012-10-19.schoeps.cmc6-mk4v.cafiero.ford.sbeok.flac16
bluzman 2012-12-09 01:05:00
The New Orleans Suspects are a great band to catch! I can't wait to hear them with Paul and Fred! Thanks for all involved!

Add a comment


http://etree.org : http://db.etree.org : http://forums.etree.org : http://wiki.etree.org : Legal : RSS Feed

Contents designed & maintained by the etree.org volunteers
1998-2014, etree.org, except where noted. All Rights Reserved.
Read our terms of service and privacy guidelines