bt.etree.org
etree.org Community Bittorrent Tracker
ArtistGrace Potter and the Nocturnals
ShowGrace Potter And The Nocturnals House Of Blues Boston, Massachusetts 11/30/2012 (Schoeps CCM4V's)
Report this as
non-Trade-Friendly
Email us
Torrentgrace2012-11-30.flac16.torrent (click to download)
Downloads asgrace2012-11-30.flac16
Info hash2f07584d80a4e4551ef6076f6415d33bb98a0f9e
db linkhttp://db.etree.org/shn/123016 | Show | Source
DescriptionGrace Potter And The Nocturnals
House Of Blues
Boston, Massachusetts
11/30/2012

Source: Schoeps CCM4V'S(din)>Lunatec V2>Benchmark AD2K>
Sound Devices 722 (24/48)
BOB/OTS/DFC/KFC/ZFC/AARP 55' From Stage, 7' High
DSP: Sound Devices 722>Sound Forge 9.0>CD Wave>flac(16)
Recorded By: Z-Man
Seeded By: Z-Man

Disc I

01 2oth Century Fox Intro On PA >
02 The Lion, The Beast, The Beat
03 Some kind Of Ride
04 Ah Mary
05 Never Go Back
06 Goodbye Kiss
07 Apologies >
08 One Short Night
09 Loneliest Soul >
10 Hit The Road Jack >
11 Loneliest Soul >
12 Space Jam >
13 2:22
14 Stars

Disc II

01 Low Road
02 Stop The Bus >
03 *Nothing But The Water Part I >
04 Nothing But The Water Part II >
05 The Divide >
06 Paint It Black
Encore:
07 Grace Banter
08 @Mad Mad River
09 Paris >
10 Medicine >
11 #Drum Solo >
12 Medicine

* Grace Solo
# Everyone On Percussion
@ With Raymond Baxter On Vocals

Flac Fingerprint

grace2012-11-30d01t01.flac:ace7c4948e9e35c6c8af2b03027b5636
grace2012-11-30d01t02.flac:17caa9b6d4e7b7f125eb120378851fbe
grace2012-11-30d01t03.flac:afcc8041670f95ff4430b873ae4cd7e2
grace2012-11-30d01t04.flac:018f667d3eb76a897096aea059c46d9b
grace2012-11-30d01t05.flac:f9a255dfa4388db754a0c1a53e233248
grace2012-11-30d01t06.flac:7707d08428077d341b91cd4ac409f93b
grace2012-11-30d01t07.flac:e2cb287ba31d04a1270da783270d9233
grace2012-11-30d01t08.flac:54080c61ba13f23ee452b3a50bd501c9
grace2012-11-30d01t09.flac:db0bda737b3768e63829572ee6666079
grace2012-11-30d01t10.flac:e859fca93b852a4abdc5f6197bbb1a12
grace2012-11-30d01t11.flac:2f46555cbb364beb014338fcd3e04d2d
grace2012-11-30d01t12.flac:9e2188c5498c900ac8d708ce87ff781a
grace2012-11-30d01t13.flac:a4cc50bf426b308e33138511bea80cfb
grace2012-11-30d01t14.flac:982fb8f1aa9f3891bc0e41f4b29d0d5b
grace2012-11-30d02t01.flac:2280453ca8e68f246cdd9f824a58aa16
grace2012-11-30d02t02.flac:7dea7ed5abba66bac6d52a5f03678e22
grace2012-11-30d02t03.flac:192e8a65dd0c96c42e31ec09a8048445
grace2012-11-30d02t04.flac:1cf5eb52b6fefdbaff9667b36830e268
grace2012-11-30d02t05.flac:5050774160814e83371bcf9908cd1bbb
grace2012-11-30d02t06.flac:fdfeaff9be502bd06e60e12c45017738
grace2012-11-30d02t07.flac:5677ff18f4820417b325413ea2aabcbe
grace2012-11-30d02t08.flac:47edc9baff6f0e32a878ffa4cd496f96
grace2012-11-30d02t09.flac:2286217d58c0f9e2af2ebb3722414782
grace2012-11-30d02t10.flac:46287e508bab146c18fcb99accfd735f
grace2012-11-30d02t11.flac:779188ac80af48cfde0e28f784572eb1
grace2012-11-30d02t12.flac:1a28525a75c4b46f0338eb7d6b20a5a9

Shntool

length expanded size cdr WAVE problems fmt ratio filename
0:21.10 3727964 B --- -- ---xx flac 0.4492 grace2012-11-30d01t01.flac
5:48.31 61460156 B --- -- ---xx flac 0.4572 grace2012-11-30d01t02.flac
5:31.14 58421372 B --- -- ---xx flac 0.4785 grace2012-11-30d01t03.flac
4:59.51 52863596 B --- -- ---xx flac 0.4674 grace2012-11-30d01t04.flac
3:38.16 38492876 B --- -- ---xx flac 0.4691 grace2012-11-30d01t05.flac
3:59.01 42161996 B --- -- ---xx flac 0.4278 grace2012-11-30d01t06.flac
6:16.26 66387596 B --- -- ---xx flac 0.3594 grace2012-11-30d01t07.flac
5:21.33 56702060 B --- -- ---xx flac 0.4270 grace2012-11-30d01t08.flac
3:34.32 37824908 B --- -- ---xx flac 0.4245 grace2012-11-30d01t09.flac
0:39.37 6966668 B --- -- ---xx flac 0.3572 grace2012-11-30d01t10.flac
1:10.52 12470348 B --- -- ---xx flac 0.4267 grace2012-11-30d01t11.flac
2:09.59 22894412 B --- -- ---xx flac 0.3694 grace2012-11-30d01t12.flac
6:51.35 72582764 B --- -- ---xx flac 0.4290 grace2012-11-30d01t13.flac
5:58.55 63280604 B --- -- ---xx flac 0.3793 grace2012-11-30d01t14.flac
5:31.57 58522508 B --- -- ---xx flac 0.3874 grace2012-11-30d02t01.flac
7:40.59 81282812 B --- -- ---xx flac 0.4940 grace2012-11-30d02t02.flac
4:06.11 43420316 B --- -- ---xx flac 0.3757 grace2012-11-30d02t03.flac
7:51.46 83192636 B --- -- ---xx flac 0.4893 grace2012-11-30d02t04.flac
8:15.44 87421532 B --- -- ---xx flac 0.4464 grace2012-11-30d02t05.flac
5:40.56 60107756 B --- -- ---xx flac 0.4656 grace2012-11-30d02t06.flac
2:36.10 27541964 B --- -- ---xx flac 0.3340 grace2012-11-30d02t07.flac
5:59.37 63414668 B --- -- ---xx flac 0.3759 grace2012-11-30d02t08.flac
4:23.33 46470860 B --- -- ---xx flac 0.5061 grace2012-11-30d02t09.flac
3:56.27 41693948 B --- -- ---xx flac 0.4630 grace2012-11-30d02t10.flac
1:40.45 17745884 B --- -- ---xx flac 0.4994 grace2012-11-30d02t11.flac
4:01.23 42566540 B --- -- ---xx flac 0.5072 grace2012-11-30d02t12.flac
118:04.00 1249618744 B 0.4379 (26 files)






Checksumsgrace2012-11-30d01t01.flac:ace7c4948e9e35c6c8af2b03027b5636<br />
grace2012-11-30d01t02.flac:17caa9b6d4e7b7f125eb120378851fbe<br />
grace2012-11-30d01t03.flac:afcc8041670f95ff4430b873ae4cd7e2<br />
grace2012-11-30d01t04.flac:018f667d3eb76a897096aea059c46d9b<br />
grace2012-11-30d01t05.flac:f9a255dfa4388db754a0c1a53e233248<br />
grace2012-11-30d01t06.flac:7707d08428077d341b91cd4ac409f93b<br />
grace2012-11-30d01t07.flac:e2cb287ba31d04a1270da783270d9233<br />
grace2012-11-30d01t08.flac:54080c61ba13f23ee452b3a50bd501c9<br />
grace2012-11-30d01t09.flac:db0bda737b3768e63829572ee6666079<br />
grace2012-11-30d01t10.flac:e859fca93b852a4abdc5f6197bbb1a12<br />
grace2012-11-30d01t11.flac:2f46555cbb364beb014338fcd3e04d2d<br />
grace2012-11-30d01t12.flac:9e2188c5498c900ac8d708ce87ff781a<br />
grace2012-11-30d01t13.flac:a4cc50bf426b308e33138511bea80cfb<br />
grace2012-11-30d01t14.flac:982fb8f1aa9f3891bc0e41f4b29d0d5b<br />
grace2012-11-30d02t01.flac:2280453ca8e68f246cdd9f824a58aa16<br />
grace2012-11-30d02t02.flac:7dea7ed5abba66bac6d52a5f03678e22<br />
grace2012-11-30d02t03.flac:192e8a65dd0c96c42e31ec09a8048445<br />
grace2012-11-30d02t04.flac:1cf5eb52b6fefdbaff9667b36830e268<br />
grace2012-11-30d02t05.flac:5050774160814e83371bcf9908cd1bbb<br />
grace2012-11-30d02t06.flac:fdfeaff9be502bd06e60e12c45017738<br />
grace2012-11-30d02t07.flac:5677ff18f4820417b325413ea2aabcbe<br />
grace2012-11-30d02t08.flac:47edc9baff6f0e32a878ffa4cd496f96<br />
grace2012-11-30d02t09.flac:2286217d58c0f9e2af2ebb3722414782<br />
grace2012-11-30d02t10.flac:46287e508bab146c18fcb99accfd735f<br />
grace2012-11-30d02t11.flac:779188ac80af48cfde0e28f784572eb1<br />
grace2012-11-30d02t12.flac:1a28525a75c4b46f0338eb7d6b20a5a9
TypeGrace Potter and the Nocturnals
Last seederLast activity 16:11:02 ago
Size521.90 MB (547247812 Bytes)
Added2012-12-01 02:15:23
Views0
Hits359
Snatched171 times
Upped byzmanatl
Num files
[See full list]
27 files
Peers
[See full list]
1 seeder, 0 leechers = 1 peer total

Add a comment

woff 2012-12-01 06:04:09
Thank you
doctorzap 2012-12-01 06:20:26
thanks

got any recent commander cody shows ?
bvaz 2012-12-01 07:16:14
nice job zman. good to see you as always
great energy to the show and lights were awesome last night. probably the best I've seen at a HOB show.
zmanatl 2012-12-01 08:29:54
Got this going and crashed as I had to be up early for work. Grace has Boston in the palm of her hand. Last year, she had a show here and sold it out. This year, she sold out both nights! It was a tough ticket and took me nearly 40 minutes to get one out front. I was giving myself 45 minutes and then leaving.

I caught 1/2 the Trampled By Turtles set, due to the fact I was waiting on a ticket. They were as good as usual, perhaps a bit mellow for the crowd, who basically stood around and yapped. Grace and the Nocturnals hit the stage at about 9:20. The HOB was energized to say the least. She began to hit us with her catalog. A few mellow ones in the beginning. I loved having Grace do the Nothing But The Water solo on her flying V! With 2 nights, I am guessing she will mix it up tomorrow. Brian, the lights were really very good. Liggy was all over it! The sound was also very transparent. I'm again happy with what I took out of there.

I upped a few of my amateur videos to give you a taste of what we were involved in:

Paris >
Medicine:
http://youtu.be/KISkkJ4wtgo

Mad Mad River:
http://youtu.be/5U94jtyOSrI

Paint It Black:
http://youtu.be/N6O8VebV67c

Late night dinner was something different. I tried to catch the Holyokes coming from a different show and meet them at Jade Garden. After I did not get them, I walked right by Popeyes at Kenmore Square on the way back to my van. The sight of all that Chicken drew me in, and the rest is history! Yummy!

Enjoy Show #173 of 2012!
Tom_of_Mule 2012-12-01 09:07:29
Thanks Z !
Tom
bvaz 2012-12-01 09:20:38
track 13 is 2:22 (and a good version at that)
johnt569 2012-12-01 11:04:28
Thanks ZMAN
LAStubbe 2012-12-01 12:13:12
I see some DPA's popped up. Was there a stream?
hucklive 2012-12-01 12:33:21
Many Thanks!
rockymtnryan 2012-12-02 13:21:02
Nice work Z!
Blues_Ken 2012-12-02 19:09:12
Thank you Zman

Add a comment


http://etree.org : http://db.etree.org : http://forums.etree.org : http://wiki.etree.org : Legal : RSS Feed

Contents designed & maintained by the etree.org volunteers
1998-2014, etree.org, except where noted. All Rights Reserved.
Read our terms of service and privacy guidelines