bt.etree.org
etree.org Community Bittorrent Tracker
ArtistGrateful Dead
Showgd82-04-05.90496.fob-nak700.wagner.miller.t-flac16
Report this as
non-Trade-Friendly
Email us
Torrentgd82-04-05.90496.fob-nak700.wagner-miller.sbeok.t-flac16.torrent (click to download)
Downloads asgd82-04-05.90496.fob-nak700.wagner-miller.sbeok.t-flac16
Info hash76eb176128c044f1321b5f095c404e2ab09a866d
db linkhttp://db.etree.org/shn/90496 | Show | Source
DescriptionThis is a flac encoded & taggged version of shnid: 90496

Grateful Dead
April 5, 1982
The Spectrum
Philadelphia, PA

Recording Info:
(FOB)
Nakamichi 700 (With Bass EQ) -> C Master (Sony D5M/Maxell XLIIS/Dolby B)

Transfer Info:
Cassette Master (Nakamichi DR-1/Dolby B)-> Sound Devices 744T(24bit/96k)
-> Samplitude Professional v10.02 -> FLAC/16
(2 Discs Audio / 2 Discs FLAC)

All Transfers and Mastering By Charlie Miller
charliemiller87@earthlink.net
February 26, 2008

Patch Info:
(FOB/4th Row)
Sennheiser 441 -> Cassette Master -> Dat -> CD (shnid=13612) supplies:
Jack Straw (0:00 - 0:59)
Little Red Rooster (0:00 - 0:25)
Drums (5:55 - 6:31)

Notes:
-- Encore moved to end of 1st Set to fit show onto 2 discs
-- Encore can be re-joined with Set 2 seamlessly
-- Sound improves after Jack Straw
-- Thanks to Bob Wagner for lending me his masters
_________________________________________________________________________

--Set 1--
101-d1t01 - Jack Straw
102-d1t02 - Friend of the Devil ->
103-d1t03 - El Paso
104-d1t04 - Deep Elem Blues
105-d1t05 - Cassidy
106-d1t06 - Tennessee Jed ->
107-d1t07 - Little Red Rooster
108-d1t08 - Althea
109-d1t09 - Man Smart (Woman Smarter)

--Set 2--
201-d2t01 - Tuning
202-d2t02 - Bertha ->
203-d2t03 - Playin' in the Band ->
204-d2t04 - Ship Of Fools ->
205-d2t05 - Playin' Jam ->
206-d2t06 - Drums ->
207-d2t07 - Space ->
208-d2t08 - The Wheel ->
209-d2t09 - Playin' in the Band ->
210-d2t10 - Wharf Rat ->
211-d2t11 - Good Lovin'

--Encore--
212-d1t10 - Don't Ease Me In
_________________________________________________________________________

Tagging notes:
Show information is embedded within the header of each flac file.
It will display on any player capable of directly playing flac
files. If converted to wav during processing, all tags will be
stripped, however audio data will remain unaffected. If you must
transcode to a lossy format, do so directly Flac > Lossy.
Use ffp to validate audio integrity.
Md5 values will change if tagging is altered.
B. Proctor 12-18-10
_________________________________________________________________________

SHNTOOL OUTPUT:
length expanded size cdr WAVE problems filename
7:12.60 76345964 --- -- ----- gd82-04-05d1t01.wav
8:52.19 93889532 --- -- ----- gd82-04-05d1t02.wav
6:39.59 70522412 --- -- ----- gd82-04-05d1t03.wav
7:03.60 74758364 --- -- ----- gd82-04-05d1t04.wav
6:29.73 68791340 --- -- ----- gd82-04-05d1t05.wav
7:57.63 84291020 --- -- ----- gd82-04-05d1t06.wav
9:23.39 99404972 --- -- ----- gd82-04-05d1t07.wav
8:35.57 90980108 --- -- ----- gd82-04-05d1t08.wav
6:27.55 68396204 --- -- ----- gd82-04-05d1t09.wav
3:25.74 36336092 --- -- ----- gd82-04-05d1t10.wav
0:40.71 7223036 --- -- ----- gd82-04-05d2t01.wav
6:43.04 71098652 --- -- ----- gd82-04-05d2t02.wav
12:13.56 129432956 --- -- ----- gd82-04-05d2t03.wav
7:47.05 82390604 --- -- ----- gd82-04-05d2t04.wav
9:52.20 104475884 --- -- ----- gd82-04-05d2t05.wav
6:49.16 72185276 --- -- ----- gd82-04-05d2t06.wav
3:44.51 39633596 --- -- ----- gd82-04-05d2t07.wav
6:08.45 65021084 --- -- ----- gd82-04-05d2t08.wav
4:27.15 47134124 --- -- ----- gd82-04-05d2t09.wav
10:08.21 107300636 --- -- ----- gd82-04-05d2t10.wav
9:42.50 102782444 --- -- ----- gd82-04-05d2t11.wav
150:27.13 1592394300 B (totals for 21 files)
Checksumsgd82-04-05d1t01.flac:34c4cbd060ebd2d6ac65805f080000bf
gd82-04-05d1t02.flac:cb33e2221c708e05d2cd4801481e5c2a
gd82-04-05d1t03.flac:85d7253f78e50e1775105d001c7b40d0
gd82-04-05d1t04.flac:3248e6f2a6588dc5d39fb50cbb8a1743
gd82-04-05d1t05.flac:6b40ecdfbbf039255c9c2192253564c4
gd82-04-05d1t06.flac:e3cd37d71a81d436c68ec8982f87f797
gd82-04-05d1t07.flac:c96a0a7061dee0c49805d775743d3a34
gd82-04-05d1t08.flac:59aaf795e731290e5e65b10e8b1d4bde
gd82-04-05d1t09.flac:3c755f8d25d216be86e38a374a47de44
gd82-04-05d1t10.flac:7585b3a250d49013272101bae746987d
gd82-04-05d2t01.flac:2d2d2512034ffecc21af8edfe2eae7d4
gd82-04-05d2t02.flac:c7650e4f89927474223c906e5590ba0d
gd82-04-05d2t03.flac:6990986c360a3f40183e59fb2d08764e
gd82-04-05d2t04.flac:46b5c3aa669e34301bc3f12bba3cc1f8
gd82-04-05d2t05.flac:924c01b44f7623fbab34e7c91662cffc
gd82-04-05d2t06.flac:49e1be9686613946f589a970eed6049a
gd82-04-05d2t07.flac:5acbfb8db1dc22c07615bf2bbdd9e4a0
gd82-04-05d2t08.flac:b212a67800c3db0588fd4b1d7e253ee1
gd82-04-05d2t09.flac:a5125339198bd923bd31eb23add4c0be
gd82-04-05d2t10.flac:7bf1910dd6f0fedd05264fd66c33410d
gd82-04-05d2t11.flac:2d400e3ff842ef5e506c3f977aa65c77
TypeGrateful Dead
Last seederLast activity 25:39 ago
Size941.03 MB (986742269 Bytes)
Added2012-12-01 07:55:28
Views0
Hits384
Snatched231 times
Upped bygermain
Num files
[See full list]
24 files
Seeders
[Hide list]
1 Seeder(s)
ip:portclient
version
ul
bytes
dl
bytes
ratiocompleteul
rate
dl
rate
time
connected
time
left
idle
162.197.121.xxx:6881 0 B 0 B N/A 100.00%
N/A N/A 5 days, 00:30:34 N/A 25:39
0 of 1 firewalled (0%) 100.00%
N/AN/A
Leechers
[Hide list]
0 Leecher(s)

Add a comment

charlie miller 2012-12-01 18:38:22
I was front row center for this one. Great first set and spacey second set.
jawknee 2012-12-01 19:27:23
I was just behind the soundboard dancin' my sweaty ass off!
turner63 2012-12-01 20:12:21
I was back of the floor spinning away!
NJFunkNetwork 2012-12-02 06:54:07
I was 10 and rocking out to Journey. LOL.
balto7 2012-12-02 07:16:04
I was 7 with buck teeth. But thanks to you I can enjoy this today.

Add a comment


http://etree.org : http://db.etree.org : http://forums.etree.org : http://wiki.etree.org : Legal : RSS Feed

Contents designed & maintained by the etree.org volunteers
1998-2014, etree.org, except where noted. All Rights Reserved.
Read our terms of service and privacy guidelines