bt.etree.org
etree.org Community Bittorrent Tracker
ArtistOther
ShowSister Sparrow And The Dirty Birds Fete Lounge Providence, Rhode Island 12/2/2012 (Schoeps CCM4V'S FOB)
Report this as
non-Trade-Friendly
Email us
Torrentsister2012-12-02.flac16.torrent (click to download)
Downloads assister2012-12-02.flac16
Info hash76661dd2dee08c23e40529fbee6fe82fda6b12cb
DescriptionSister Sparrow And The Dirty Birds
Fete Lounge
Providence, Rhode Island
12/2/2012

Source: Schoeps CCM4V'S(din)>Lunatec V2>Benchmark AD2K>
Sound Devices 722 (24/48)
FOB/DFC/KFC/ZFC/AARP 15' From Stage, 7' High
DSP: Sound Devices 722>Sound Forge 9.0>CD Wave>flac(16)
Recorded By: Z-Man
Seeded By: Z-Man

Disc I

01 Intro A >
02 Untie >
03 Make It Rain
04 Millie >
05 Freight
06 Miss You >
07 Horse
08 Another Ride >
09 Lasso

Disc II

01 Too Much
02 Fat Bottom Girls
03 Horse To Water
04 Vices
05 Boogie Man

Flac Fingerprint

sister2012-12-02d01t01.flac:f113f974ce9f28feed16de7913881313
sister2012-12-02d01t02.flac:259c448717c02f36aaf6813e30d1b0c2
sister2012-12-02d01t03.flac:da0f814c8961bd3fe034a8c7f42185bc
sister2012-12-02d01t04.flac:cc1a24150dce61ce33252a71666c9605
sister2012-12-02d01t05.flac:fa3fb7efc8cf82056b30ab94a929cae3
sister2012-12-02d01t06.flac:c70ccdebe4e85eb918d217bb1c00c845
sister2012-12-02d01t07.flac:ffbdbcd4963f615fb72199f7818c8fd2
sister2012-12-02d01t08.flac:a85007e7643fef9617108ac93b6c2beb
sister2012-12-02d01t09.flac:e46343612d514acff494f04d673e9688
sister2012-12-02d02t01.flac:da534a842ad26432e9281733443e27d7
sister2012-12-02d02t02.flac:7ba6db26d0b283337ada51ebcc951e84
sister2012-12-02d02t03.flac:27ac36721bb1934622410c4feaa80b01
sister2012-12-02d02t04.flac:7c2ff4447f2883b83607151c3211c314
sister2012-12-02d02t05.flac:ef5c4f80f7e8f5002102635b9c89d1c7

Shntool

length expanded size cdr WAVE problems fmt ratio filename
4:31.01 47806796 B --- -- ---xx flac 0.6372 sister2012-12-02d01t01.flac
3:41.15 39019724 B --- -- ---xx flac 0.6277 sister2012-12-02d01t02.flac
4:09.64 44074172 B --- -- ---xx flac 0.6194 sister2012-12-02d01t03.flac
5:35.08 59112860 B --- -- ---xx flac 0.6297 sister2012-12-02d01t04.flac
3:46.55 39995804 B --- -- ---xx flac 0.6057 sister2012-12-02d01t05.flac
5:24.07 57170108 B --- -- ---xx flac 0.5991 sister2012-12-02d01t06.flac
4:30.09 47649212 B --- -- ---xx flac 0.6046 sister2012-12-02d01t07.flac
6:34.45 69607484 B --- -- ---xx flac 0.5340 sister2012-12-02d01t08.flac
7:45.01 82028396 B --- -- ---xx flac 0.5802 sister2012-12-02d01t09.flac
7:05.32 75045308 B --- -- ---xx flac 0.5477 sister2012-12-02d02t01.flac
5:13.51 55333196 B --- -- ---xx flac 0.5752 sister2012-12-02d02t02.flac
8:17.24 87727292 B --- -- ---xx flac 0.5704 sister2012-12-02d02t03.flac
8:35.68 91005980 B --- -- ---xx flac 0.5457 sister2012-12-02d02t04.flac
5:25.09 57351212 B --- -- ---xx flac 0.6232 sister2012-12-02d02t05.flac
80:35.14 852927544 B 0.5861 (14 files)















Checksumssister2012-12-02d01t01.flac:f113f974ce9f28feed16de7913881313
sister2012-12-02d01t02.flac:259c448717c02f36aaf6813e30d1b0c2
sister2012-12-02d01t03.flac:da0f814c8961bd3fe034a8c7f42185bc
sister2012-12-02d01t04.flac:cc1a24150dce61ce33252a71666c9605
sister2012-12-02d01t05.flac:fa3fb7efc8cf82056b30ab94a929cae3
sister2012-12-02d01t06.flac:c70ccdebe4e85eb918d217bb1c00c845
sister2012-12-02d01t07.flac:ffbdbcd4963f615fb72199f7818c8fd2
sister2012-12-02d01t08.flac:a85007e7643fef9617108ac93b6c2beb
sister2012-12-02d01t09.flac:e46343612d514acff494f04d673e9688
sister2012-12-02d02t01.flac:da534a842ad26432e9281733443e27d7
sister2012-12-02d02t02.flac:7ba6db26d0b283337ada51ebcc951e84
sister2012-12-02d02t03.flac:27ac36721bb1934622410c4feaa80b01
sister2012-12-02d02t04.flac:7c2ff4447f2883b83607151c3211c314
sister2012-12-02d02t05.flac:ef5c4f80f7e8f5002102635b9c89d1c7
TypeOther
Last seederLast activity 48 days, 06:39:02 ago
Size476.74 MB (499902528 Bytes)
Added2012-12-03 01:51:37
Views0
Hits159
Snatched34 times
Upped byzmanatl
Num files
[See full list]
15 files
Seeders
[Hide list]
0 Seeder(s)
Leechers
[Hide list]
0 Leecher(s)

Add a comment

zmanatl 2012-12-03 01:55:57
This turned out nice. First time for both Brian and myself to be in this venue. A cool room with some very tight sound!

After the opening band, I decided to listen to the locals and give Olneyville NY System Restaurant a try. I had 3 "Gaggers" All The Way. I washed them down with a glass of Coffee Milk! I did get some gas as can be expected, thank God the mics were in front of me! Great to hang with Mike and Bryan
Tom_of_Mule 2012-12-03 10:02:17
Thanks Z !
Tom

I hear this is the band opening in Philly and 12/30 for Mule.
Time to give 'em a listen.
mec111272 2012-12-03 12:17:46
Glad I wasn't in the car with you on the way home!
ghostworld 2012-12-04 15:14:05
great new-ish venue, bad choice in eats ... but i thank you all the same

Add a comment


http://etree.org : http://db.etree.org : http://forums.etree.org : http://wiki.etree.org : Legal : RSS Feed

Contents designed & maintained by the etree.org volunteers
1998-2014, etree.org, except where noted. All Rights Reserved.
Read our terms of service and privacy guidelines