bt.etree.org
etree.org Community Bittorrent Tracker
ArtistGrateful Dead
Showgd82-04-06.90469.fob-nak700.wagner.miller.t-flac16
Report this as
non-Trade-Friendly
Email us
Torrentgd82-04-06.90469.fob-nak700.wagner-miller.sbeok.t-flac16.torrent (click to download)
Downloads asgd82-04-06.90469.fob-nak700.wagner-miller.sbeok.t-flac16
Info hashd343a5554c732a41114b1b08fce3c2f29e220f84
db linkhttp://db.etree.org/shn/90469 | Show | Source
DescriptionThis is a tagged version fo shnid: 90469

Grateful Dead
April 6, 1982
The Spectrum
Philadelphia, PA

Recording Info:
(FOB) Nakamichi 700 (With Bass EQ) -> Cassette Master
(Sony D5M/Maxell XLIIS/Dolby B)

Transfer Info:
Cassette Master (Nakamichi DR-1/Dolby B) ->
Sound Devices 744T (24bit/96k) -> Samplitude Professional v10.02 ->
FLAC/16
(3 Discs Audio / 2 Discs FLAC)

All Transfers and Mastering By Charlie Miller
charliemiller87@earthlink.net
February 26, 2008

Notes:
-- Set 2 is seamless
-- Thanks to Bob Wagner for lending me his masters
______________________________________________________________________

--Set 1--
101-d1t01 - Tuning
102-d1t02 - Cold Rain & Snow ->
103-d1t03 - The Promised Land
104-d1t04 - Candyman ->
105-d1t05 - C C Rider
106-d1t06 - Brown Eyed Women
107-d1t07 - Mama Tried ->
108-d1t08 - Mexicali Blues
109-d1t09 - Big Railroad Blues
110-d1t10 - Looks Like Rain
111-d1t11 - Jack-A-Roe
112-d1t12 - It's All Over Now
113-d1t13 - Might As Well

--Set 2--
201-d2t01 - Tuning
202-d2t02 - Shakedown Street ->
203-d2t03 - Lost Sailor ->
204-d2t04 - Saint of Circumstance ->
205-d2t05 - Terrapin Station ->
206-d2t06 - Drums ->
207-d3t01 - Space ->
208-d3t02 - Truckin' ->
209-d3t03 - The Other One ->
210-d3t04 - Morning Dew ->
211-d3t05 - Sugar Magnolia

--Encore--
212-d3t06 - It's All Over Now, Baby Blue
______________________________________________________________________

Tagging notes:
Show information is embedded within the header of each flac file.
It will display on any player capable of directly playing flac
files. If converted to wav during processing, all tags will be
stripped, however audio data will remain unaffected. If you must
transcode to a lossy format, do so directly Flac > Lossy.
Use ffp to validate audio integrity.
Md5 values will change if tagging is altered.
B. Proctor 12-23-10
______________________________________________________________________


SHNTOOL OUTPUT:
length expanded size cdr WAVE problems filename
1:00.19 10628732 --- -- ----- gd82-04-06d1t01.wav
5:57.30 63045404 --- -- ----- gd82-04-06d1t02.wav
6:10.21 65317436 --- -- ----- gd82-04-06d1t03.wav
6:26.51 68210396 --- -- ----- gd82-04-06d1t04.wav
8:56.38 94639820 --- -- ----- gd82-04-06d1t05.wav
6:24.01 67739996 --- -- ----- gd82-04-06d1t06.wav
2:23.13 25255820 --- -- ----- gd82-04-06d1t07.wav
4:57.04 52400252 --- -- ----- gd82-04-06d1t08.wav
4:04.33 43119260 --- -- ----- gd82-04-06d1t09.wav
9:48.00 103723244 --- -- ----- gd82-04-06d1t10.wav
4:54.08 51880460 --- -- ----- gd82-04-06d1t11.wav
7:12.14 76237772 --- -- ----- gd82-04-06d1t12.wav
4:38.45 49145084 --- -- ----- gd82-04-06d1t13.wav
1:27.52 15469148 --- -- ----- gd82-04-06d2t01.wav
13:02.40 138038924 --- -- ----- gd82-04-06d2t02.wav
6:16.73 66498140 --- -- ----- gd82-04-06d2t03.wav
6:28.08 68462060 --- -- ----- gd82-04-06d2t04.wav
11:52.40 125690924 --- -- ----- gd82-04-06d2t05.wav
11:37.69 123113132 --- -- ----- gd82-04-06d2t06.wav
8:59.48 95192540 --- -- ----- gd82-04-06d3t01.wav
6:11.10 65467964 --- -- ----- gd82-04-06d3t02.wav
2:41.19 28445132 --- -- ----- gd82-04-06d3t03.wav
12:02.64 127511372 --- -- ----- gd82-04-06d3t04.wav
8:53.59 94160012 --- -- ----- gd82-04-06d3t05.wav
7:24.25 78380444 --- -- ----- gd82-04-06d3t06.wav
169:51.34 1797773468 B (totals for 25 files)
Checksumsgd82-04-06d1t01.flac:72cb4849722b4b4d1e3cd0614b9e4c82
gd82-04-06d1t02.flac:e8b3217b21a3dc5d40f3ab7223b1db8d
gd82-04-06d1t03.flac:2e5ec963011e60d1d405ba90a37b4462
gd82-04-06d1t04.flac:1780edb39fa73515fa9a7ef38a79d128
gd82-04-06d1t05.flac:44fc5cedb17c6746903224dbcda4d9b6
gd82-04-06d1t06.flac:cc9880500c6868d6063cde8d7daf4235
gd82-04-06d1t07.flac:e11ca741eda2b4949d71551076f38657
gd82-04-06d1t08.flac:02247547f85e7a1df32c2c0e320ac62e
gd82-04-06d1t09.flac:6a41c5c8434aa236668cf245fe02ed5b
gd82-04-06d1t10.flac:8cb1fc0a86461c0f714e6e9c4074def7
gd82-04-06d1t11.flac:d07990d81665e2f5125ffa2063f47035
gd82-04-06d1t12.flac:aa06c17972f4e9d8421a2118a0bf1680
gd82-04-06d1t13.flac:a2d9ccbcdac32e44c73c687b56da8e37
gd82-04-06d2t01.flac:57deea73f82ee4626caa1c2f57de42a5
gd82-04-06d2t02.flac:00d69e12e3fe7ecba239e1d23c10893c
gd82-04-06d2t03.flac:23620a37330b9ef349337648771ec6ef
gd82-04-06d2t04.flac:42f578bd813f1d4e8a0eff90eb7caed0
gd82-04-06d2t05.flac:212ccb89e133d77974d817b96afed144
gd82-04-06d2t06.flac:867b322324f62f44c14ddb3465f3a4b6
gd82-04-06d3t01.flac:f5d94530c4c6e7b7406f01c59930410a
gd82-04-06d3t02.flac:577fe7c7bc14c88008ba115e2ce158c1
gd82-04-06d3t03.flac:7216f1e4a7b9d65e73783d56b3582dcf
gd82-04-06d3t04.flac:aecd20bde3a5cf0e56c0a68b62bc07e8
gd82-04-06d3t05.flac:b1641b9b746b7c257a12b19861e4aaf1
gd82-04-06d3t06.flac:0d1245bcda106931e7d0a9140b6ca02d
TypeGrateful Dead
Last seederLast activity 16:12 ago
Size1.012 GB (1086655149 Bytes)
Added2012-12-03 09:31:07
Views0
Hits269
Snatched109 times
Upped bygermain
Num files
[See full list]
28 files
Seeders
[Hide list]
1 Seeder(s)
ip:portclient
version
ul
bytes
dl
bytes
ratiocompleteul
rate
dl
rate
time
connected
time
left
idle
162.197.121.xxx:6881 0 B 0 B N/A 100.00%
N/A N/A 4 days, 19:25:06 N/A 16:12
0 of 1 firewalled (0%) 100.00%
N/AN/A
Leechers
[Hide list]
0 Leecher(s)

Add a comment

forbin1221 2014-08-20 20:59:17
Great pull and great show!

Add a comment


http://etree.org : http://db.etree.org : http://forums.etree.org : http://wiki.etree.org : Legal : RSS Feed

Contents designed & maintained by the etree.org volunteers
1998-2014, etree.org, except where noted. All Rights Reserved.
Read our terms of service and privacy guidelines