bt.etree.org
etree.org Community Bittorrent Tracker
ArtistGovt Mule
ShowGov`t mule 1995-09-15 Atlanta, GA - The Cotton Club ***Schoeps CMC 4uk/Mk-41 ***
Report this as
non-Trade-Friendly
Email us
Torrentgm1995-09-15.torrent (click to download)
Downloads asgm1995-09-15
Info hash2fa2b7074daf5fd5aa841ff6f03323d61ec18c95
DescriptionGov't Mule
The Cotton Club
Atlanta, GA
1995-09-15

Original Lineage: Schoeps CMC 4uk/Mk-41 > Schoeps BZ941U > Sony CCD-V220 > Hi-8 > DVD
DVD Conversion: DVD Remsater Pro > Izotope RX Advanced (48>44.1 src) > Amadeus Pro (tracking) > xACT > Flac16


Setlist:
Dusc 1:

01. Tuning/Introduction
02. Mule >
03. Rocking Horse >
04. Mr. Big >
05. Temporary Saint >
06. Trane >
07. Third Stone From The Sun Jam >
08. St. Stephen Jam >
09. Eternity's Breath
10. Pygmy Twylyte >
11. Blind Man in the Dark

Disc 2:
12. Grinnin' in Your Face >
13. Mother Earth
14. Left Coast Groovies >
15. Drums >
16. Left Coast Groovies >
17. World of Difference (fade out)

Disc 3:
18. Don't Step on the Grass, Sam > (fade in)
19. Painted Silver Light
20. Monkey Hill >
21. She's So Heavy Jam
22. The Same Thing >
23. Just Got Paid >
24. Mule Jam >
25. Who Do You Love? >
26. Just Got Paid >

(Encore)

27. Crowd/Announcements
28. The End of the Line
29. Guest Intro/Tuning
30. Look On Yonder Wall

Warren Haynes - guitar,vocals
Allen Woody - bass, vocals
Matt Abts - drums


* Note: This audio was originally on a DVD I just received in a trade, I checked the .db and saw a few folks with the DVD listed and others with a Soundboard source listed that has circulated for some time, but I saw no one with this AUD copy alone. IMO this has excellent sound. I extracted the Audio from the dvd (16/48) and used Izotope to resample to 44.1 for CDA. NO OTHER DAE was preformed on this audio.

* There is an unknown guest that sits in for "Look On Yonder Wall" Warren introduces him but I could not make out his last name. Phil (?) Warren does mention he played for the "Firemonkeys" who opened for Mule that night. I could not find anything about the band or Phil. If anyone has any more information please feel free to let us know!



*********************************************************************************************

ChecksumsFFP:<br />
gm1995-09-15.aud.mk41.t01.Tuning-Intro.flac:8f8a2b24814923126b3093a085e0f0dc<br />
gm1995-09-15.aud.mk41.t02.Mule.flac:2ffe3b29bdb454f232cb1e65e506a80b<br />
gm1995-09-15.aud.mk41.t03.Rocking Horse.flac:ec046c1eab1a6df789e24f949344d605<br />
gm1995-09-15.aud.mk41.t04.Mr. Big.flac:374c7625073026b9e4efb7af87f59214<br />
gm1995-09-15.aud.mk41.t05.Temporary Saint.flac:3e9bda0979e17efa36005299200ae561<br />
gm1995-09-15.aud.mk41.t06.Trane.flac:34725fef4208b9ee3c44dd4f540186f8<br />
gm1995-09-15.aud.mk41.t07.Third Stone From The Sun Jam.flac:1b5edbe0626f88e1a4b317015aeb7a84<br />
gm1995-09-15.aud.mk41.t08.St. Stephen Jam.flac:6bc8a51957faac265d1f548695d7c204<br />
gm1995-09-15.aud.mk41.t09.Eternitys Breath Jam.flac:0412a35d08b20b3219714a1c77aa8bc3<br />
gm1995-09-15.aud.mk41.t10.Pygmy Twylyte.flac:363b811d845de293b597b1051451a2be<br />
gm1995-09-15.aud.mk41.t11.Blind Man In The Dark.flac:8adee3ed8a06b774878cf3e218643757<br />
gm1995-09-15.aud.mk41.t12.Grinnin\' In Your Face.flac:d238ab8ef0f24bc132f35c46c7b481ef<br />
gm1995-09-15.aud.mk41.t13.Mother Earth.flac:d237d94fec9d4b1b438a08432a6ac48e<br />
gm1995-09-15.aud.mk41.t14.Left Coast Groovies.flac:6229272dc91895375d1f49bc287b43b5<br />
gm1995-09-15.aud.mk41.t15.Drums.flac:b3d38eec13671fefec4e84ba3828a2ce<br />
gm1995-09-15.aud.mk41.t16.Left Coast Groovies.flac:a61873b179b1e45e14d373e8a5323925<br />
gm1995-09-15.aud.mk41.t17.World of Difference.flac:d8ba1b3c5ac7cd262bb4ba4882c7d984<br />
gm1995-09-15.aud.mk41.t18.Dont Step On The Grass Sam.flac:b2292a84bef591333e4482d29092d70c<br />
gm1995-09-15.aud.mk41.t19.Painted Silver Light.flac:8fac7e7907cedfdc4f53a1aaa0a91f96<br />
gm1995-09-15.aud.mk41.t20.Monkey Hill.flac:26d337283c41dd2243da8654f6a619b2<br />
gm1995-09-15.aud.mk41.t21.Shes So Heavy jam.flac:20e7dcbc197059eab8bf9e68abf0c6fa<br />
gm1995-09-15.aud.mk41.t22.The Same Thing.flac:c373a49a2a806c8c0188caa6c27164b2<br />
gm1995-09-15.aud.mk41.t23.Just Got Paid.flac:be7abb3addeabc20b71d5c1f47409630<br />
gm1995-09-15.aud.mk41.t24.Mule jam.flac:e52e0d44a597b1785481caa0027bf04c<br />
gm1995-09-15.aud.mk41.t25.Who Do you Love.flac:5e0f50934ca6dc1fe71c3b2c6ffb4f0d<br />
gm1995-09-15.aud.mk41.t26.Just Got Paid.flac:f7c623c03d521f4f07b5c9b5bc8c61aa<br />
gm1995-09-15.aud.mk41.t27.Crowd-Announcements .flac:459e88d919fb371326b16a62db2e9ca0<br />
gm1995-09-15.aud.mk41.t28.End of The Line.flac:a3c83815c171d5c9e795fe57fdade65b<br />
gm1995-09-15.aud.mk41.t29.Guest Intro-Tuning.flac:04be31635dd797cf83e7ba69bc0242b8<br />
gm1995-09-15.aud.mk41.t30.Look On Yonder Wall.flac:5f6acfc403bbf83561b6e82ca719dbe4<br />
<br />
<br />
shntool: <br />
length expanded size cdr WAVE problems fmt ratio filename<br />
0:45.46 8046236 B --- -- ---xx gm1995-09-15.aud.mk41.t01.Tuning-Intro.flac<br />
5:33.74 58915292 B --- -- ---xx gm1995-09-15.aud.mk41.t02.Mule.flac<br />
4:18.40 45605324 B --- -- ---xx gm1995-09-15.aud.mk41.t03.Rocking Horse.flac<br />
6:39.19 70428332 B --- -- ---xx gm1995-09-15.aud.mk41.t04.Mr. Big.flac<br />
5:50.13 61770620 B --- -- ---xx gm1995-09-15.aud.mk41.t05.Temporary Saint.flac<br />
6:37.15 70066124 B --- -- ---xx gm1995-09-15.aud.mk41.t06.Trane.flac<br />
2:13.00 23461244 B --- -- ---xx gm1995-09-15.aud.mk41.t07.Third Stone From The Sun Jam.flac<br />
2:52.56 30472556 B --- -- ---xx gm1995-09-15.aud.mk41.t08.St. Stephen Jam.flac<br />
3:38.48 38568140 B --- -- ---xx gm1995-09-15.aud.mk41.t09.Eternitys Breath Jam.flac<br />
2:14.03 23644700 B --- -- ---xx gm1995-09-15.aud.mk41.t10.Pygmy Twylyte.flac<br />
7:43.64 81823772 B --- -- ---xx gm1995-09-15.aud.mk41.t11.Blind Man In The Dark.flac<br />
1:44.73 18517340 B --- -- ---xx gm1995-09-15.aud.mk41.t12.Grinnin\' In Your Face.flac<br />
9:00.54 95383052 B --- -- ---xx gm1995-09-15.aud.mk41.t13.Mother Earth.flac<br />
7:32.66 79888076 B --- -- ---xx gm1995-09-15.aud.mk41.t14.Left Coast Groovies.flac<br />
2:25.35 25660364 B --- -- ---xx gm1995-09-15.aud.mk41.t15.Drums.flac<br />
1:28.08 15542060 B --- -- ---xx gm1995-09-15.aud.mk41.t16.Left Coast Groovies.flac<br />
11:20.15 119987324 B --- -- ---xx gm1995-09-15.aud.mk41.t17.World of Difference.flac<br />
7:01.59 74403212 B --- -- ---xx gm1995-09-15.aud.mk41.t18.Dont Step On The Grass Sam.flac<br />
8:12.11 86814716 B --- -- ---xx gm1995-09-15.aud.mk41.t19.Painted Silver Light.flac<br />
4:37.53 48987500 B --- -- ---xx gm1995-09-15.aud.mk41.t20.Monkey Hill.flac<br />
1:06.29 11710652 B --- -- ---xx gm1995-09-15.aud.mk41.t21.Shes So Heavy jam.flac<br />
8:25.02 89086748 B --- -- ---xx gm1995-09-15.aud.mk41.t22.The Same Thing.flac<br />
2:19.73 24691340 B --- -- ---xx gm1995-09-15.aud.mk41.t23.Just Got Paid.flac<br />
2:07.06 22416956 B --- -- ---xx gm1995-09-15.aud.mk41.t24.Mule jam.flac<br />
1:38.66 17442476 B --- -- ---xx gm1995-09-15.aud.mk41.t25.Who Do you Love.flac<br />
2:26.49 25869692 B --- -- ---xx gm1995-09-15.aud.mk41.t26.Just Got Paid.flac<br />
1:10.72 12517388 B --- -- ---xx gm1995-09-15.aud.mk41.t27.Crowd-Announcements .flac<br />
7:11.72 76197788 B --- -- ---xx gm1995-09-15.aud.mk41.t28.End of The Line.flac<br />
1:42.30 18063404 B --- -- ---xx gm1995-09-15.aud.mk41.t29.Guest Intro-Tuning.flac<br />
10:38.69 112705532 B --- -- ---xx gm1995-09-15.aud.mk41.t30.Look On Yonder Wall.flac<br />
140:39.20 1488687960 B 0.5976 (30 files)<br />
<br />
<br />
*************************** Original Info ****************************<br />
<br />
Technical Info:<br />
Audience Recording (tripod)<br />
NTSC Format, 720 x 480, 4:3<br />
Video: MPEG-2,29.970 frames/second<br />
Audio: MPEG-1 Layer-2, 48000Hz 224 kb/second, stereo<br />
Bitrate: 5994 kbps, system: 10080 kb/s VBR<br />
Total Running Time: 2:06:29<br />
6.58 GB Total<br />
<br />
<br />
Lineage:<br />
Video recorded with:<br />
Sony Video 8 Pro Digital Stereo Camera Recorder CCD-V220 <br />
<br />
Audio recorded with:<br />
Schoeps CMC 4uk microphone preamps with Mk-41 hypercardiod capsules and Schoeps popscreens, powered by Schoeps BZ941U <br />
<br />
Tapes transferred with:<br />
Sony EVS3000 PCM and Panasonic DMRE500H stand alone<br />
<br />
Files ripped with:<br />
DVD Decrypter 3.5.2.0<br />
<br />
Video transcoded with:<br />
VirtualDub-MPEG2 1.5.10<br />
<br />
Audio transcoded with:<br />
VobEdit 0.6 and BeSweet 0.6<br />
<br />
Audio edited with:<br />
Sound Forge Studio 6.0 and Diamond Cut 5.22<br />
<br />
Show edited and rendered with:<br />
Vegas Movie Studio 4.0<br />
<br />
DVD authored with:<br />
TMPGEnc DVD Author 1.6.26.73<br />
<br />
DVD files burned with:<br />
CopyToDVD 3.0.45.79<br />
<br />
Notes:<br />
This was the third volume of the \&quot;Planet Hophead\&quot; series, which is an extensive collection of music video originally recorded by \&quot;Hophead,\&quot; beginning in the 1980\'s. This volume showcases the powerhouse Gov\'t Mule playin\' music fer yer ass! I\'d evaluate the audio/video quality as very good, considering the age of the tapes and the technology used. The Planet Hophead logo, resized for a cover, is included in extras.<br />
TypeGovt Mule
Last seederLast activity 15:29 ago
Size854.20 MB (895694559 Bytes)
Added2012-12-04 07:52:23
Views0
Hits291
Snatched120 times
Upped byBlusOxator
Num files
[See full list]
42 files
Seeders
[Hide list]
0 Seeder(s)
Leechers
[Hide list]
1 Leecher(s)
ip:portclient
version
ul
bytes
dl
bytes
ratiocompleteul
rate
dl
rate
time
connected
time
left
idle
72.8.156.xxx:10080 0 B 0 B N/A 0.00%
N/A N/A 1 day, 00:35:25 N/A 15:29
0 of 1 firewalled (0%) 0.00%
N/AN/A

Add a comment

BlusOxator 2012-12-04 08:02:26
@themuleman
1995-02-11 is openig too (old seed) - take a look.
Perhaps Mr. Weber seed the 1996-03-30 show again - sorry
this one I don`t have....
nebakenezer 2012-12-04 09:32:25
The Fire Monkeys were a blues band from California (Los Angeles or San Diego I think) who had a guitarist named Maurio Marcus that used to play with Floyd Dixon. He wound up moving to Atlanta for a while in the 90's. I do not know Phil's last name, but he was the other guitarist in the band. This was my 3rd Mule show. I got there about halfway through the Fire Monkey's set. Pretty good as I remember.
Tom_of_Mule 2012-12-04 11:03:28
Thank you !
Tom
sprobeck 2012-12-04 16:37:47
Thanks a lot
Scott
themuleman 2012-12-04 18:13:55
Right on......Thank you BlusOxator

Add a comment


http://etree.org : http://db.etree.org : http://forums.etree.org : http://wiki.etree.org : Legal : RSS Feed

Contents designed & maintained by the etree.org volunteers
1998-2014, etree.org, except where noted. All Rights Reserved.
Read our terms of service and privacy guidelines