bt.etree.org
etree.org Community Bittorrent Tracker
ArtistOther
ShowAlvin Youngblood Harts Muscle Theory 2012-11-30 Bennies Boom Boom Room Hattiesburg, MS
Report this as
non-Trade-Friendly
Email us
Torrentayh2012-11-30.akg460.flac16.torrent (click to download)
Downloads asayh2012-11-30.akg460.flac16
Info hash447dfd6f2c687912f53f6919e0aa58eeaa32a8b2
DescriptionAlvin Youngblood Harts Muscle Theory
2012-11-30
Bennies Boom Boom Room
Hattiesburg, MS

Source: AKGc460b/a60m/ck1(DIN)>Apogee Mini MP>DR-680 @ 24/48
Location: DFC, 20' from stage @ 6.5'
Transfer: SD Card>HDD>Wavelab 6.0>CdWave>FLAC
Taper: jkbyram

Show was 1 set

Set 1
01. Big Mama's Door
02.
03. Nobody's Fault But Mine
04. Lawd I'm Just A Country Boy In This Great Big Freaky City
05. My World Is Round
06. Motivational Speaker
07. Stomp Dance
08.
09.
10. Hell Of A Way For A Man To Make A livin'

Set 2
11.
12. Meanest Jukebox in Town
13.
14. The Worm
15. In My Time Of Dyin'
16. White Line
17. Mr. Soul
18. *
19. *
20. *
21. How Long Before I Can Change My Clothes
22. Stone Free
23. Just Like A Woman
24. Sway
25. Fighting Hard
26. Shoot Me A Grin

*solo


Notes:
- Wavelab used to resample/dither to 16 bit


length expanded size cdr WAVE problems fmt ratio filename
7:02.26 74501996 B --- -- ----- wav 1.0000 ayh2012-11-30t01.wav
3:21.03 35463500 B --- -- ----- wav 1.0000 ayh2012-11-30t02.wav
3:08.38 33252620 B --- -- ----- wav 1.0000 ayh2012-11-30t03.wav
3:40.11 38833916 B --- -- ----- wav 1.0000 ayh2012-11-30t04.wav
4:12.18 44495180 B --- -- ----- wav 1.0000 ayh2012-11-30t05.wav
4:44.46 50205836 B --- -- ----- wav 1.0000 ayh2012-11-30t06.wav
4:47.06 50640956 B --- -- ----- wav 1.0000 ayh2012-11-30t07.wav
3:21.69 35618732 B --- -- ----- wav 1.0000 ayh2012-11-30t08.wav
8:14.18 87183980 B --- -- ----- wav 1.0000 ayh2012-11-30t09.wav
3:22.63 35781020 B --- -- ----- wav 1.0000 ayh2012-11-30t10.wav
3:44.56 39645356 B --- -- ----- wav 1.0000 ayh2012-11-30t11.wav
4:33.01 48159596 B --- -- ----- wav 1.0000 ayh2012-11-30t12.wav
2:21.16 24910076 B --- -- ----- wav 1.0000 ayh2012-11-30t13.wav
4:43.52 50043548 B --- -- ----- wav 1.0000 ayh2012-11-30t14.wav
6:14.37 66060668 B --- -- ----- wav 1.0000 ayh2012-11-30t15.wav
3:00.13 31782620 B --- -- ----- wav 1.0000 ayh2012-11-30t16.wav
4:10.14 44132972 B --- -- ----- wav 1.0000 ayh2012-11-30t17.wav
6:37.58 70167260 B --- -- ----- wav 1.0000 ayh2012-11-30t18.wav
4:34.65 48486524 B --- -- ----- wav 1.0000 ayh2012-11-30t19.wav
7:08.03 75506300 B --- -- ----- wav 1.0000 ayh2012-11-30t20.wav
6:19.12 66883868 B --- -- ----- wav 1.0000 ayh2012-11-30t21.wav
9:02.14 95641772 B --- -- ----- wav 1.0000 ayh2012-11-30t22.wav
7:52.69 83423132 B --- -- ----- wav 1.0000 ayh2012-11-30t23.wav
3:39.50 38749244 B --- -- ----- wav 1.0000 ayh2012-11-30t24.wav
3:28.44 36794732 B --- -- ----- wav 1.0000 ayh2012-11-30t25.wav
6:20.36 67116716 B --- -- ----- wav 1.0000 ayh2012-11-30t26.wav
129:46.13 1373482120 B 1.0000 (26 files)
Checksumsayh2012-11-30t01.flac:d939420b728d672f40c01eed1517763a
ayh2012-11-30t02.flac:b2494241b125ef865be0ded699d73ee6
ayh2012-11-30t03.flac:8e8cd40bddad97cb5f83239574406109
ayh2012-11-30t04.flac:a40075820f260a81c49d8e9fd71429f7
ayh2012-11-30t05.flac:90804f4a3156a6847b950d606af68e2b
ayh2012-11-30t06.flac:c4970939dfe6acf28dda683589d6366a
ayh2012-11-30t07.flac:f4ab5ccb9377dbe636aaff5ddf4c8cef
ayh2012-11-30t08.flac:c38ae06a6d73b29a852c8492969a69ba
ayh2012-11-30t09.flac:3e8a53b3d2c6e52e695811ce632c2eaa
ayh2012-11-30t10.flac:c4d3b0c5a69268f2b41341961eaf4b77
ayh2012-11-30t11.flac:83605ef339fa610721fa9836d356a9f8
ayh2012-11-30t12.flac:b7435319635f351665404374d556496f
ayh2012-11-30t13.flac:9e1212ffecd6d85fdc18fc50ed62bffe
ayh2012-11-30t14.flac:559c5c3b831d1abbd068ea38f5ad8aab
ayh2012-11-30t15.flac:a8ec188616d9966f7839522cdeedceea
ayh2012-11-30t16.flac:7185e5e1dbe18c6a0d1c7f0bfc293199
ayh2012-11-30t17.flac:34c194cfee7eea382255077fb6e7f296
ayh2012-11-30t18.flac:3d13f71d4f2f50ebc65824f2627907e3
ayh2012-11-30t19.flac:3fe25185410c6fafa2510579bc012d98
ayh2012-11-30t20.flac:12b7873ebbe8cafc3e90b9e865f435c7
ayh2012-11-30t21.flac:c246b78a5afb94c3714acaeced409ac3
ayh2012-11-30t22.flac:c5dc8fdfe76b3bb0805460b5319825c5
ayh2012-11-30t23.flac:45094717b0f334bfd50144990058d885
ayh2012-11-30t24.flac:cabb6827a7923453a72d10186e502fbe
ayh2012-11-30t25.flac:d8c02f1d6eca5cbc1b12ed5aba212437
ayh2012-11-30t26.flac:2035ba0c9fc52c2023aec4e1d34b0953
TypeOther
Last seederLast activity 1 day, 17:50:36 ago
Size716.75 MB (751562877 Bytes)
Added2012-12-04 22:49:37
Views0
Hits179
Snatched44 times
Upped byjkbyram
Num files
[See full list]
29 files
Seeders
[Hide list]
0 Seeder(s)
Leechers
[Hide list]
0 Leecher(s)

Add a comment

woodsbob 2012-12-08 18:59:38
Thanks for sharing. Filled in some blanks...

Disc 1:
01. Big Mama's Door
02. Just About To Go
03. Nobody's Fault But Mine
04. Lawd I'm Just A Country Boy In This Great Big Freaky City
05. My World Is Round
06. Motivational Speaker
07. Stomp Dance
08. Bo Diddley
09. Electric Eel
10. Hell Of A Way For A Man To Make A Livin'

Disc 2:
11. Where The Fun Is
12. Meanest Jukebox In Town
13. Pretty Bird ?
14. The Worm
15. In My Time Of Dyin'
16. White Line
17. Mr. Soul
18. Mama Don't Allow *
19. Motherless Children Have A Hard Time *
20. If Blues Was Money *
21. How Long Before I Can Change My Clothes
22. Stone Free
23. Just Like A Woman
24. Sway
25. Fighting Hard
26. Shoot Me A Grin

*solo

D1 t8 I call Bo Diddley, and I don't know what D2 t13 is called. Just guessed at Pretty Bird ?



Add a comment


http://etree.org : http://db.etree.org : http://forums.etree.org : http://wiki.etree.org : Legal : RSS Feed

Contents designed & maintained by the etree.org volunteers
1998-2014, etree.org, except where noted. All Rights Reserved.
Read our terms of service and privacy guidelines