bt.etree.org
etree.org Community Bittorrent Tracker
ArtistOther
ShowOld Jack Middle East Upstairs Cambridge, Massachusetts 11/28/2012 (Schoeps CCM4V'S FOB)
Report this as
non-Trade-Friendly
Email us
Torrentoldjack2012-11-28.flac16.torrent (click to download)
Downloads asoldjack2012-11-28.flac16
Info hash6c2552379e2c723ed1e84b6b26f76e1f20953ba7
DescriptionOld Jack
Middle East - Upstairs
Cambridge, Massachusetts
11/28/2012

Source: Schoeps CCM4V'S(din)>Lunatec V2>Benchmark AD2K>
Sound Devices 722 (24/48)
FOB/DFC/KFC/ZFC/AARP 18' From Stage, 7' High
DSP: Sound Devices 722>Sound Forge 9.0>CD Wave>flac(16)
Recorded By: Z-Man
Seeded By: Z-Man

Disc I

01 Hey Miss
02 Make Up Your Mind
03 Take A Bow >
04 Radio
05See Fernando
06 Chorus Line
07 Summertime
08 Deny Me Not >
09 Put You On Parade

Flac Fingerprint

oldjack2012-11-28d01t01.flac:332b49998519d1234f91dbf2824ad8ed
oldjack2012-11-28d01t02.flac:dc32680d15f2533235a9e9869b725595
oldjack2012-11-28d01t03.flac:27c4438f9fe81ba982f6082ead4a121f
oldjack2012-11-28d01t04.flac:308e1d53de6d5d323b80415be8c4043e
oldjack2012-11-28d01t05.flac:cdb84750f7e63660fdc49d85762b091e
oldjack2012-11-28d01t06.flac:5cafb6491c8b78066b07787f0d358b30
oldjack2012-11-28d01t07.flac:b2904303a4f0dad6cc138caf38d8feff
oldjack2012-11-28d01t08.flac:b6a34e4458bb09b380ba7ad700522900
oldjack2012-11-28d01t09.flac:b2f11c1e12bfae44705564913083ca4f

Shntool

length expanded size cdr WAVE problems fmt ratio filename
4:31.58 47940860 B --- -- ---xx flac 0.5460 oldjack2012-11-28d01t01.flac
4:50.60 51297164 B --- -- ---xx flac 0.5524 oldjack2012-11-28d01t02.flac
6:16.24 66382892 B --- -- ---xx flac 0.5210 oldjack2012-11-28d01t03.flac
5:25.39 57421772 B --- -- ---xx flac 0.4940 oldjack2012-11-28d01t04.flac
6:45.05 71453804 B --- -- ---xx flac 0.5224 oldjack2012-11-28d01t05.flac
4:49.00 50979644 B --- -- ---xx flac 0.5376 oldjack2012-11-28d01t06.flac
3:40.39 38899772 B --- -- ---xx flac 0.5878 oldjack2012-11-28d01t07.flac
4:01.40 42606524 B --- -- ---xx flac 0.4784 oldjack2012-11-28d01t08.flac
6:55.73 73377740 B --- -- ---xx flac 0.5517 oldjack2012-11-28d01t09.flac
47:16.38 500360172 B 0.5315 (9 files)








Checksumsoldjack2012-11-28d01t01.flac:332b49998519d1234f91dbf2824ad8ed
oldjack2012-11-28d01t02.flac:dc32680d15f2533235a9e9869b725595
oldjack2012-11-28d01t03.flac:27c4438f9fe81ba982f6082ead4a121f
oldjack2012-11-28d01t04.flac:308e1d53de6d5d323b80415be8c4043e
oldjack2012-11-28d01t05.flac:cdb84750f7e63660fdc49d85762b091e
oldjack2012-11-28d01t06.flac:5cafb6491c8b78066b07787f0d358b30
oldjack2012-11-28d01t07.flac:b2904303a4f0dad6cc138caf38d8feff
oldjack2012-11-28d01t08.flac:b6a34e4458bb09b380ba7ad700522900
oldjack2012-11-28d01t09.flac:b2f11c1e12bfae44705564913083ca4f
Visibleno (dead)
TypeOther
Last seederLast activity 236 days, 20:35:21 ago
Size253.60 MB (265921873 Bytes)
Added2012-12-04 23:15:34
Views0
Hits123
Snatched6 times
Upped byzmanatl
Num files10 files
File List
[Hide list]
filenamesizemd5
oldjack2012-11-28d01t09.flac38.60 MBN/A
oldjack2012-11-28d01t05.flac35.60 MBN/A
oldjack2012-11-28d01t03.flac32.99 MBN/A
oldjack2012-11-28d01t04.flac27.05 MBN/A
oldjack2012-11-28d01t02.flac27.02 MBN/A
oldjack2012-11-28d01t06.flac26.14 MBN/A
oldjack2012-11-28d01t01.flac24.96 MBN/A
oldjack2012-11-28d01t07.flac21.81 MBN/A
oldjack2012-11-28d01t08.flac19.44 MBN/A
oldjack2012-11-28.textfile.txt2.0 kBN/A
Peers
[See full list]
0 seeders, 0 leechers = 0 peers total

Add a comment

dfunky 2012-12-06 20:06:14
Thanks for the music. Love hearing new rock n roll!

Add a comment


http://etree.org : http://db.etree.org : http://forums.etree.org : http://wiki.etree.org : Legal : RSS Feed

Contents designed & maintained by the etree.org volunteers
1998-2014, etree.org, except where noted. All Rights Reserved.
Read our terms of service and privacy guidelines