bt.etree.org
etree.org Community Bittorrent Tracker
ArtistOther
ShowNational Reserve Middle East Upstairs Cambridge, Massachusetts 11/28/2012 (Schoeps CCM4V'S FOB)
Report this as
non-Trade-Friendly
Email us
Torrentnational2012-11-28.flac16.torrent (click to download)
Downloads asnational2012-11-28.flac16
Info hash5c3752fa11813d7c1e97f8f076897c670b0f95e5
DescriptionNational Reserve
Middle East - Upstairs
Cambridge, Massachusetts
11/28/2012

Source: Schoeps CCM4V'S(din)>Lunatec V2>Benchmark AD2K>
Sound Devices 722 (24/48)
FOB/DFC/KFC/ZFC/AARP 18' From Stage, 7' High
DSP: Sound Devices 722>Sound Forge 9.0>CD Wave>flac(16)
Recorded By: Z-Man
Seeded By: Z-Man

Disc I

01 Tuning
02 California
03 ?
04 City Of Angels
05 High-Heeled Snewakers
06 Rollin' In My Sweet Baby's Arms
07 Back Up On My Feet >
08 White Freight-Liner Blues
09 Hello Strangers

Flac Fingerprint

national2012-11-28d01t01.flac:e02e13b33a147972564851e44fa613f2
national2012-11-28d01t02.flac:9a8c48faef21f983aa5658a99d47ea90
national2012-11-28d01t03.flac:740611c503246bd413abf7c11c708ab1
national2012-11-28d01t04.flac:c10b2253c69f58c1c37fe75c807b6c55
national2012-11-28d01t05.flac:ceb629dc258d8fc3963c386ba74d8d73
national2012-11-28d01t06.flac:a5239d0d35cf106c853306fc1ef69023
national2012-11-28d01t07.flac:085105c28a3f9c7292674034bb17efc6
national2012-11-28d01t08.flac:69959827d95071e9aab5acafc4f3b201
national2012-11-28d01t09.flac:be0d6347b4ee848129bbe84bbb0e28dd

Shntool

length expanded size cdr WAVE problems fmt ratio filename
0:57.37 10141868 B --- -- ---xx flac 0.3691 national2012-11-28d01t01.flac
5:05.42 53900828 B --- -- ---xx flac 0.5159 national2012-11-28d01t02.flac
4:28.25 47334044 B --- -- ---xx flac 0.5620 national2012-11-28d01t03.flac
4:51.06 51346556 B --- -- ---xx flac 0.5108 national2012-11-28d01t04.flac
5:13.43 55314380 B --- -- ---xx flac 0.5784 national2012-11-28d01t05.flac
5:27.31 57755756 B --- -- ---xx flac 0.5331 national2012-11-28d01t06.flac
4:34.21 48383036 B --- -- ---xx flac 0.4914 national2012-11-28d01t07.flac
6:14.07 65990108 B --- -- ---xx flac 0.5032 national2012-11-28d01t08.flac
6:51.65 72653324 B --- -- ---xx flac 0.4961 national2012-11-28d01t09.flac
43:43.52 462819900 B 0.5190 (9 files)








Checksumsnational2012-11-28d01t01.flac:e02e13b33a147972564851e44fa613f2
national2012-11-28d01t02.flac:9a8c48faef21f983aa5658a99d47ea90
national2012-11-28d01t03.flac:740611c503246bd413abf7c11c708ab1
national2012-11-28d01t04.flac:c10b2253c69f58c1c37fe75c807b6c55
national2012-11-28d01t05.flac:ceb629dc258d8fc3963c386ba74d8d73
national2012-11-28d01t06.flac:a5239d0d35cf106c853306fc1ef69023
national2012-11-28d01t07.flac:085105c28a3f9c7292674034bb17efc6
national2012-11-28d01t08.flac:69959827d95071e9aab5acafc4f3b201
national2012-11-28d01t09.flac:be0d6347b4ee848129bbe84bbb0e28dd
TypeOther
Last seederLast activity 9:08 ago
Size229.07 MB (240194170 Bytes)
Added2012-12-04 23:17:12
Views0
Hits120
Snatched4 times
Upped byzmanatl
Num files
[See full list]
10 files
Seeders
[Hide list]
0 Seeder(s)
Leechers
[Hide list]
1 Leecher(s)
ip:portclient
version
ul
bytes
dl
bytes
ratiocompleteul
rate
dl
rate
time
connected
time
left
idle
72.8.156.xxx:10026 0 B 0 B N/A 0.00%
N/A N/A 3:11:51 N/A 9:08
0 of 1 firewalled (0%) 0.00%
N/AN/A

Add a comment

kayatosh 2012-12-06 11:53:40
thanks for taping these guys. saw them in philly and was duly impressed.

Add a comment


http://etree.org : http://db.etree.org : http://forums.etree.org : http://wiki.etree.org : Legal : RSS Feed

Contents designed & maintained by the etree.org volunteers
1998-2014, etree.org, except where noted. All Rights Reserved.
Read our terms of service and privacy guidelines