bt.etree.org
etree.org Community Bittorrent Tracker
ArtistOther
ShowTrampled By Turtles House Of Blues Boston, Massachusetts 11/30/2012 (Schoeps CCM4V's)
Report this as
non-Trade-Friendly
Email us
Torrenttbt2012-11-30.flac16.torrent (click to download)
Downloads astbt2012-11-30.flac16
Info hashd37e8acd88771dcbd7a8feb0d4326cee302dfa1f
DescriptionTrampled By Turtles
House Of Blues
Boston, Massachusetts
11/30/2012

Source: Schoeps CCM4V'S(din)>Lunatec V2>Benchmark AD2K>
Sound Devices 722 (24/48)
BOB/OTS/DFC/KFC/ZFC/AARP 55' From Stage, 7' High
DSP: Sound Devices 722>Sound Forge 9.0>CD Wave>flac(16)
Recorded By: Z-Man
Seeded By: Z-Man

Disc I

01 Help You
02 It's a War
03 Empire
04 Midnight on the Interstate
05 New Orleans
06 Wait So Long

Show Notes: I am missin the first few songs. I had to work until after 6:00.
Then, Construction diverted me through Cambridge. Then, it was a sold out show
so I had to hunt down a ticket. I am uploading what I recorded in case anyone
would like it.

Flac Fingerprint

turtle2012-11-30d01t01.flac:836bb30e2e2f98eddca36922c7fab6f2
turtle2012-11-30d01t02.flac:767999ece9d2a635a1dde3a65deaf765
turtle2012-11-30d01t03.flac:ffaa4fb7e425f857c89e31939d7edf0a
turtle2012-11-30d01t04.flac:dbe1acf71fc5814e09cab64008563398
turtle2012-11-30d01t05.flac:b3ff6707a07c6b9ffeabc996b44cebd3
turtle2012-11-30d01t06.flac:7991b8a0f5f113cee081d1810a322a36

Shntool

length expanded size cdr WAVE problems fmt ratio filename
3:33.07 37589708 B --- -- ---xx flac 0.5009 turtle2012-11-30d01t01.flac
2:59.63 31723820 B --- -- ---xx flac 0.5262 turtle2012-11-30d01t02.flac
4:36.37 48773468 B --- -- ---xx flac 0.4822 turtle2012-11-30d01t03.flac
4:38.69 49201532 B --- -- ---xx flac 0.4001 turtle2012-11-30d01t04.flac
4:54.04 51871052 B --- -- ---xx flac 0.4408 turtle2012-11-30d01t05.flac
4:11.22 44328188 B --- -- ---xx flac 0.5216 turtle2012-11-30d01t06.flac
24:53.52 263487768 B 0.4733 (6 files)

Checksumsturtle2012-11-30d01t01.flac:836bb30e2e2f98eddca36922c7fab6f2
turtle2012-11-30d01t02.flac:767999ece9d2a635a1dde3a65deaf765
turtle2012-11-30d01t03.flac:ffaa4fb7e425f857c89e31939d7edf0a
turtle2012-11-30d01t04.flac:dbe1acf71fc5814e09cab64008563398
turtle2012-11-30d01t05.flac:b3ff6707a07c6b9ffeabc996b44cebd3
turtle2012-11-30d01t06.flac:7991b8a0f5f113cee081d1810a322a36
TypeOther
Last seederLast activity 22 days, 00:53:57 ago
Size118.93 MB (124710802 Bytes)
Added2012-12-04 23:18:52
Views0
Hits146
Snatched22 times
Upped byzmanatl
Num files
[See full list]
7 files
Peers
[See full list]
1 seeder, 0 leechers = 1 peer total

No comments yet

Add a comment


http://etree.org : http://db.etree.org : http://forums.etree.org : http://wiki.etree.org : Legal : RSS Feed

Contents designed & maintained by the etree.org volunteers
1998-2014, etree.org, except where noted. All Rights Reserved.
Read our terms of service and privacy guidelines