bt.etree.org
etree.org Community Bittorrent Tracker
ArtistOther
ShowShotgun Fete Lounge Providence, Rhode Island 12/2/2012 (Schoeps CCM4V'S FOB)
Report this as
non-Trade-Friendly
Email us
Torrentshotgun2012-12-02.flac16.torrent (click to download)
Downloads asshotgun2012-12-02.flac16
Info hash9ce1aa8e3f1f95aa41b0a481338e1fa71fbdb12f
DescriptionShotgun
Fete Lounge
Providence, Rhode Island
12/2/2012

Source: Schoeps CCM4V'S(din)>Lunatec V2>Benchmark AD2K>
Sound Devices 722 (24/48)
FOB/DFC/KFC/ZFC/AARP 15' From Stage, 7' High
DSP: Sound Devices 722>Sound Forge 9.0>CD Wave>flac(16)
Recorded By: Z-Man
Seeded By: Z-Man

Disc I

01 Devil Sent Woman
02 I Need Your Lovin'
03 I Won't Go >
04 Alright
05 You Can't Lose
06 Come Together
07 Song In E
08 WBN
09 Let Her Down >
10 Ballerina

Flac Fingerprint

shotgun2012-12-02d01t01.flac:20bd2d931c37faa4ffb5e5be86738ea9
shotgun2012-12-02d01t02.flac:c7fa1a58c12f6f6012621d3b436b1727
shotgun2012-12-02d01t03.flac:adef08e7bdf0bcf6c35d94833e7055a3
shotgun2012-12-02d01t04.flac:873181f427951cbd7703c0c427f1be77
shotgun2012-12-02d01t05.flac:ee38f2c5f09c92a00eecdb56de9722cf
shotgun2012-12-02d01t06.flac:2c0bfa83e96fd75f41f90ada6267b6b1
shotgun2012-12-02d01t07.flac:87d145b5e3dac3e9a9f7de24a4dd3e4f
shotgun2012-12-02d01t08.flac:c1c8b133a8d89d81207551bb7aa021ed
shotgun2012-12-02d01t09.flac:aaa1bce616f5307603c5a66ff42daa7b
shotgun2012-12-02d01t10.flac:1be79a3f5ae804d309b9eb5144ce59b8

Shntool

length expanded size cdr WAVE problems fmt ratio filename
5:18.71 56262236 B --- -- ---xx flac 0.6018 shotgun2012-12-02d01t01.flac
4:51.38 51421820 B --- -- ---xx flac 0.5315 shotgun2012-12-02d01t02.flac
6:04.39 64301372 B --- -- ---xx flac 0.5050 shotgun2012-12-02d01t03.flac
4:18.31 45584156 B --- -- ---xx flac 0.5541 shotgun2012-12-02d01t04.flac
6:46.22 71670188 B --- -- ---xx flac 0.5420 shotgun2012-12-02d01t05.flac
5:33.45 58847084 B --- -- ---xx flac 0.5181 shotgun2012-12-02d01t06.flac
5:32.52 58687148 B --- -- ---xx flac 0.5377 shotgun2012-12-02d01t07.flac
6:32.23 69202940 B --- -- ---xx flac 0.4338 shotgun2012-12-02d01t08.flac
4:53.46 51793436 B --- -- ---xx flac 0.5935 shotgun2012-12-02d01t09.flac
4:21.17 46080428 B --- -- ---xx flac 0.5787 shotgun2012-12-02d01t10.flac
54:13.09 573850808 B 0.5354 (10 files)










Checksumsshotgun2012-12-02d01t01.flac:20bd2d931c37faa4ffb5e5be86738ea9
shotgun2012-12-02d01t02.flac:c7fa1a58c12f6f6012621d3b436b1727
shotgun2012-12-02d01t03.flac:adef08e7bdf0bcf6c35d94833e7055a3
shotgun2012-12-02d01t04.flac:873181f427951cbd7703c0c427f1be77
shotgun2012-12-02d01t05.flac:ee38f2c5f09c92a00eecdb56de9722cf
shotgun2012-12-02d01t06.flac:2c0bfa83e96fd75f41f90ada6267b6b1
shotgun2012-12-02d01t07.flac:87d145b5e3dac3e9a9f7de24a4dd3e4f
shotgun2012-12-02d01t08.flac:c1c8b133a8d89d81207551bb7aa021ed
shotgun2012-12-02d01t09.flac:aaa1bce616f5307603c5a66ff42daa7b
shotgun2012-12-02d01t10.flac:1be79a3f5ae804d309b9eb5144ce59b8
Visibleno (dead)
TypeOther
Last seederLast activity 189 days, 17:19:53 ago
Size293.01 MB (307247553 Bytes)
Added2012-12-04 23:21:02
Views0
Hits121
Snatched7 times
Upped byzmanatl
Num files
[See full list]
11 files
Seeders
[Hide list]
0 Seeder(s)
Leechers
[Hide list]
0 Leecher(s)

No comments yet

Add a comment


http://etree.org : http://db.etree.org : http://forums.etree.org : http://wiki.etree.org : Legal : RSS Feed

Contents designed & maintained by the etree.org volunteers
1998-2014, etree.org, except where noted. All Rights Reserved.
Read our terms of service and privacy guidelines