bt.etree.org
etree.org Community Bittorrent Tracker
ArtistGrateful Dead
Showgd83-04-19.s1.sbd.miller.123052.sbeok.flac16
Report this as
non-Trade-Friendly
Email us
Torrentgd83-04-19.s1.sbd.miller.123052.sbeok.flac16.torrent (click to download)
Downloads asgd83-04-19.s1.sbd.miller.123052.sbeok.flac16
Info hash4c66be9d730c5a27eb5d0c419855143da3cc8514
db linkhttp://db.etree.org/shn/123052 | Show | Source
DescriptionGrateful Dead - April 19, 1983
Alfond Arena - Orono, ME
University of Maine

Recording Info:
SBD -> Cassette Master -> Cassette -> FLAC (shnid=123036)

Transfer Info:
FLAC -> Adobe Audition v3.0 -> Samplitude Professional v11.2.1 -> FLAC
(1 Disc Audio / 1 Disc FLAC)

All Mastering By Charlie Miller
charliemiller87@earthlink.net
December 5, 2012

Notes:
-- Thanks to Rob Berger and Jerry Moore for the source
-- Thanks to Joe B. Jones for his help with the pitch correction

Set One:
d1t01 - Jack Straw
d1t02 - Friend Of The Devil
d1t03 - It's All Over Now
d1t04 - Dire Wolf ->
d1t05 - Big River
d1t06 - Dupree's Diamond Blues
d1t07 - On The Road Again
d1t08 - West L.A. Fadeaway
d1t09 - Lazy Lightnin' ->
d1t10 - Supplication
d1t11 - Might As Well


SHNTOOL OUTPUT:
length expanded size cdr WAVE problems fmt ratio filename
7:25.52 78620348 B --- -- ---xx flac 0.5951 gd83-04-19d1t01.flac
9:02.14 95641772 B --- -- ---xx flac 0.5523 gd83-04-19d1t02.flac
10:53.02 115193948 B --- -- ---xx flac 0.5593 gd83-04-19d1t03.flac
3:01.20 31975484 B --- -- ---xx flac 0.5820 gd83-04-19d1t04.flac
6:47.22 71846588 B --- -- ---xx flac 0.5834 gd83-04-19d1t05.flac
6:59.61 74055116 B --- -- ---xx flac 0.5854 gd83-04-19d1t06.flac
4:20.36 45948716 B --- -- ---xx flac 0.5976 gd83-04-19d1t07.flac
8:34.53 90794300 B --- -- ---xx flac 0.5686 gd83-04-19d1t08.flac
3:13.72 34214588 B --- -- ---xx flac 0.5954 gd83-04-19d1t09.flac
7:24.64 78472172 B --- -- ---xx flac 0.5852 gd83-04-19d1t10.flac
4:24.69 46731932 B --- -- ---xx flac 0.5892 gd83-04-19d1t11.flac
72:08.15 763494964 B 0.5774 (11 files)
Checksumse9ef2a9bb1b30af0f7e546967a7291a7 *gd83-04-19d1t01.flac
634da8cd6d7ca66e74ab275a5cb39b42 *gd83-04-19d1t02.flac
412154b785235d4f872f544baedf7b3a *gd83-04-19d1t03.flac
c7a998c58857f670eaa2ba553abb3170 *gd83-04-19d1t04.flac
016f7a648f3fb5c05eff538b819400dc *gd83-04-19d1t05.flac
6c00c80455cb120723495ae71f3c2f92 *gd83-04-19d1t06.flac
2a096e962f582c94f6eed3cadd0547a6 *gd83-04-19d1t07.flac
c19b3dbfd11c8d74517ace619245d65d *gd83-04-19d1t08.flac
4fe691f4e6bc7faf36ec5e01c5c075f2 *gd83-04-19d1t09.flac
c64694a773fb71528a3d785e81fa32a1 *gd83-04-19d1t10.flac
303fdefedd6c2d2e052907000e807856 *gd83-04-19d1t11.flac
TypeGrateful Dead
Last seederLast activity 13:53 ago
Size420.40 MB (440825541 Bytes)
Added2012-12-07 12:59:11
Views0
Hits653
Snatched429 times
Upped byWHARFRAT73
Num files
[See full list]
14 files
Peers
[See full list]
1 seeder, 0 leechers = 1 peer total

Add a comment

sprobeck 2012-12-07 17:42:44
Thanks~
rsterrapin 2012-12-08 08:42:54
Thanks very much!
i-miss-tol 2012-12-08 10:27:49
an oft-forgotten show, this is one of '83's best IMO, esp. the Sugaree 2nd set opener

thanx for the 1st set :)

Add a comment


http://etree.org : http://db.etree.org : http://forums.etree.org : http://wiki.etree.org : Legal : RSS Feed

Contents designed & maintained by the etree.org volunteers
1998-2014, etree.org, except where noted. All Rights Reserved.
Read our terms of service and privacy guidelines