bt.etree.org
etree.org Community Bittorrent Tracker
ArtistOther
ShowDopapod Stone Church Newmarket, New Hampshire 12/7/2012 (Schoeps CCM4V'S FOB)
Report this as
non-Trade-Friendly
Email us
Torrentdopapod2012-12-07.flac16.torrent (click to download)
Downloads asdopapod2012-12-07.flac16
Info hash7c9a8202e9f542d99b92a96048eb16c682ac0cae
DescriptionDopapod
Stone Church
Newmarket, New Hampshire
12/7/2012

Source: Schoeps CCM4V'S(din)>Lunatec V2>Benchmark AD2K>
Sound Devices 722 (24/48)
FOB/DFC/KFC/ZFC/AARP 10' From Stage, 7' High
DSP: Sound Devices 722>Sound Forge 9.0>CD Wave>flac(16)
Recorded By: Z-Man
Seeded By: Z-Man

Disc I 1st Set

01 PA Intro Music >
02 French Bowling
03 New James
04 Bubblebrain
05 We Are Not Alone >
06 Nuggy
07 Weird Charlie Part II >
08 Trapper Keeper

Disc II 2nd Set

01 Weird Charlie Part I
02 Vol. 3 #86
03 Bats >
04 Psychonature
05 Carol Of The Bells >
06 Psychonature

Disc III 2nd Set Con't

01 Onions Head >
02 Indian Grits
Encore I:
03 Thanks
04 Sonic
Encore II:
05 Bring 'Em Back
06 8 Years Ended

Flac Fingerprint

dopapod2012-12-07d01t01.flac:1394f700215feb2f6248ac1c916ff911
dopapod2012-12-07d01t02.flac:3337ce3f484e2b7454a43e983fb8e5b9
dopapod2012-12-07d01t03.flac:f413e62421313ba489b5145c042bdc35
dopapod2012-12-07d01t04.flac:e374a009076f67f41add1d26b87cf742
dopapod2012-12-07d01t05.flac:8be0e9a47d3d216d7a562b518aa23d64
dopapod2012-12-07d01t06.flac:39d84b73658500288d8fffed01fac00a
dopapod2012-12-07d01t07.flac:97971b483e78484046e5ab0e43183f40
dopapod2012-12-07d01t08.flac:3117b9279a7458b2a1dc269949323f92
dopapod2012-12-07d02t01.flac:d5ab705d6c72a012649ac4672cb77684
dopapod2012-12-07d02t02.flac:585de56eb60935d0ca47817bc5719444
dopapod2012-12-07d02t03.flac:6534bf5ce2eefc500fc1c34553fd4ce0
dopapod2012-12-07d02t04.flac:8f8b6b5f919eda1e791458a098063991
dopapod2012-12-07d02t05.flac:8194c62a25bc64e41f5b6b6bdc05e39a
dopapod2012-12-07d02t06.flac:9147b2f0ca97edecaf8c0ff08ca756a5
dopapod2012-12-07d03t01.flac:d8e7e7cedff43596382d533781c4e8bd
dopapod2012-12-07d03t02.flac:3c9deafdb4e808c3ff289b053c32f60d
dopapod2012-12-07d03t03.flac:d481418fc90ad0f7acc9e363f650883f
dopapod2012-12-07d03t04.flac:081be4d44166cbe6ea03d3e4678f090b
dopapod2012-12-07d03t05.flac:0395b8725e84692080b1f09fe1732c0d
dopapod2012-12-07d03t06.flac:d2d2e8823c55e5f82100ceea079bf2a7

Shntool

length expanded size cdr WAVE problems fmt ratio filename
4:24.07 46586108 B --- -- ---xx flac 0.2856 dopapod2012-12-07d01t01.flac
9:29.73 100543340 B --- -- ---xx flac 0.5005 dopapod2012-12-07d01t02.flac
11:37.05 122962604 B --- -- ---xx flac 0.4892 dopapod2012-12-07d01t03.flac
10:01.56 106148156 B --- -- ---xx flac 0.4662 dopapod2012-12-07d01t04.flac
7:44.16 81887276 B --- -- ---xx flac 0.4728 dopapod2012-12-07d01t05.flac
11:00.35 116506364 B --- -- ---xx flac 0.5454 dopapod2012-12-07d01t06.flac
3:43.35 39419564 B --- -- ---xx flac 0.5026 dopapod2012-12-07d01t07.flac
10:40.56 113027756 B --- -- ---xx flac 0.4965 dopapod2012-12-07d01t08.flac
11:51.07 125436908 B --- -- ---xx flac 0.4750 dopapod2012-12-07d02t01.flac
5:30.13 58242620 B --- -- ---xx flac 0.4702 dopapod2012-12-07d02t02.flac
8:24.10 88929164 B --- -- ---xx flac 0.5020 dopapod2012-12-07d02t03.flac
9:26.01 99844796 B --- -- ---xx flac 0.4996 dopapod2012-12-07d02t04.flac
2:41.38 28489820 B --- -- ---xx flac 0.5874 dopapod2012-12-07d02t05.flac
11:44.33 124263260 B --- -- ---xx flac 0.4976 dopapod2012-12-07d02t06.flac
11:35.74 122772092 B --- -- ---xx flac 0.4927 dopapod2012-12-07d03t01.flac
9:52.24 104485292 B --- -- ---xx flac 0.4802 dopapod2012-12-07d03t02.flac
0:18.11 3201116 B --- -- ---xx flac 0.3836 dopapod2012-12-07d03t03.flac
9:53.29 104673452 B --- -- ---xx flac 0.5235 dopapod2012-12-07d03t04.flac
1:06.21 11691836 B --- -- ---xx flac 0.3343 dopapod2012-12-07d03t05.flac
9:59.11 105689516 B --- -- ---xx flac 0.5029 dopapod2012-12-07d03t06.flac
161:04.30 1704801040 B 0.4900 (20 files)







Checksumsdopapod2012-12-07d01t01.flac:1394f700215feb2f6248ac1c916ff911
dopapod2012-12-07d01t02.flac:3337ce3f484e2b7454a43e983fb8e5b9
dopapod2012-12-07d01t03.flac:f413e62421313ba489b5145c042bdc35
dopapod2012-12-07d01t04.flac:e374a009076f67f41add1d26b87cf742
dopapod2012-12-07d01t05.flac:8be0e9a47d3d216d7a562b518aa23d64
dopapod2012-12-07d01t06.flac:39d84b73658500288d8fffed01fac00a
dopapod2012-12-07d01t07.flac:97971b483e78484046e5ab0e43183f40
dopapod2012-12-07d01t08.flac:3117b9279a7458b2a1dc269949323f92
dopapod2012-12-07d02t01.flac:d5ab705d6c72a012649ac4672cb77684
dopapod2012-12-07d02t02.flac:585de56eb60935d0ca47817bc5719444
dopapod2012-12-07d02t03.flac:6534bf5ce2eefc500fc1c34553fd4ce0
dopapod2012-12-07d02t04.flac:8f8b6b5f919eda1e791458a098063991
dopapod2012-12-07d02t05.flac:8194c62a25bc64e41f5b6b6bdc05e39a
dopapod2012-12-07d02t06.flac:9147b2f0ca97edecaf8c0ff08ca756a5
dopapod2012-12-07d03t01.flac:d8e7e7cedff43596382d533781c4e8bd
dopapod2012-12-07d03t02.flac:3c9deafdb4e808c3ff289b053c32f60d
dopapod2012-12-07d03t03.flac:d481418fc90ad0f7acc9e363f650883f
dopapod2012-12-07d03t04.flac:081be4d44166cbe6ea03d3e4678f090b
dopapod2012-12-07d03t05.flac:0395b8725e84692080b1f09fe1732c0d
dopapod2012-12-07d03t06.flac:d2d2e8823c55e5f82100ceea079bf2a7
Visibleno (dead)
TypeOther
Last seederLast activity 129 days, 13:16:48 ago
Size796.58 MB (835272806 Bytes)
Added2012-12-08 16:26:23
Views0
Hits122
Snatched13 times
Upped byzmanatl
Num files21 files
File List
[Hide list]
filenamesizemd5
dopapod2012-12-07d01t06.flac60.60 MBN/A
dopapod2012-12-07d02t06.flac58.97 MBN/A
dopapod2012-12-07d03t01.flac57.69 MBN/A
dopapod2012-12-07d01t03.flac57.36 MBN/A
dopapod2012-12-07d02t01.flac56.82 MBN/A
dopapod2012-12-07d01t08.flac53.52 MBN/A
dopapod2012-12-07d03t04.flac52.26 MBN/A
dopapod2012-12-07d03t06.flac50.69 MBN/A
dopapod2012-12-07d01t02.flac47.99 MBN/A
dopapod2012-12-07d03t02.flac47.85 MBN/A
dopapod2012-12-07d02t04.flac47.57 MBN/A
dopapod2012-12-07d01t04.flac47.19 MBN/A
dopapod2012-12-07d02t03.flac42.57 MBN/A
dopapod2012-12-07d01t05.flac36.92 MBN/A
dopapod2012-12-07d02t02.flac26.12 MBN/A
dopapod2012-12-07d01t07.flac18.89 MBN/A
dopapod2012-12-07d02t05.flac15.96 MBN/A
dopapod2012-12-07d01t01.flac12.69 MBN/A
dopapod2012-12-07d03t05.flac3.73 MBN/A
dopapod2012-12-07d03t03.flac1.17 MBN/A
dopapod2012-12-07.textfile.txt4.0 kBN/A
Peers
[See full list]
0 seeders, 0 leechers = 0 peers total

Add a comment

LGandM 2012-12-08 20:12:40
thanx... taking a listen !!! seeing you so very soon... many hugzzz !!!

Add a comment


http://etree.org : http://db.etree.org : http://forums.etree.org : http://wiki.etree.org : Legal : RSS Feed

Contents designed & maintained by the etree.org volunteers
1998-2014, etree.org, except where noted. All Rights Reserved.
Read our terms of service and privacy guidelines