bt.etree.org
etree.org Community Bittorrent Tracker
ArtistDark Star Orchestra
ShowDark Star Orchestra Lowell Memorial Auditorium Lowell, Massachusetts 12/8/2012 (Schoeps CCM4V'S FOB)
Report this as
non-Trade-Friendly
Email us
Torrentdso2012-12-08.flac16.torrent (click to download)
Downloads asdso2012-12-08.flac16
Info hash24d551a9da8c1e0ba62727d6419a44393e261208
DescriptionDark Star Orchestra
Lowell Memorial Auditorium
Lowell, Massachusetts
12/8/2012

Source: Schoeps CCM4V'S(din)>Lunatec V2>Benchmark AD2K>
Sound Devices 722 (24/48)
FOB/DFC/KFC/ZFC/AARP Left Center Section, 10th Row, Seat 2, 6 1/2' High (Clamped With Brian, Thanks Brian!)
DSP: Sound Devices 722>Sound Forge 9.0>CD Wave>flac(16)
Recorded By: Z-Man
Seeded By: Z-Man

Disc I 1st Set

01 Greeting/Tuning
02 Jack Straw >
03 Bertha >
04 Greatest Story Ever Told
05 Lazy River Road
06 Lazy Lightnin' >
07 Supplication
08 It Hurts Me Too
09 Might As Well
10 Black-Throated Wind
11 Shakedown Street

Disc II 2nd Set

01 Tuning
02 Help On The Way >
03 Slipknot! >
04 Feel Like A Stranger
05 Mission In The Rain
06 Playin In The Band >
07 Drum Solo >

Disc III 2nd Set Con't

01 Space >
02 Eyes Of The World >
03 Playin' In The Band >
04 Morning Dew
Encore:
05 Thanks
06 Brokedown Palace

Flac Fingerprint

dso2012-12-08d01t01.flac:0bf3d409ec7e34f8ecc13fbfe7b836d5
dso2012-12-08d01t02.flac:dac817bbaba07b6c1f61d597b0130866
dso2012-12-08d01t03.flac:ce6495dd7e91847a075cce7c885177d7
dso2012-12-08d01t04.flac:5dcab6e49210b6f699d5e9e18f4075a0
dso2012-12-08d01t05.flac:29575ace3b46aaa81ece095cd2fc6068
dso2012-12-08d01t06.flac:f315a231533e23ea9874783f562a54c1
dso2012-12-08d01t07.flac:8fec7701d13f145ee478ba4ded7b71eb
dso2012-12-08d01t08.flac:c629844973b1cbde35ad3c95bfea51ea
dso2012-12-08d01t09.flac:0ba2da1579378ba01bd277e38032b576
dso2012-12-08d01t10.flac:b7f407765749a055fcf51fcfdd7af9bd
dso2012-12-08d01t11.flac:3db10862ca5b1f907e1a8df559cf6f3e
dso2012-12-08d02t01.flac:4851c965d3e145f62cf9d71401a2c6d5
dso2012-12-08d02t02.flac:2685011a250e82e9219ae1053e2aca18
dso2012-12-08d02t03.flac:61392272e27b98d8097c79d94781ff6e
dso2012-12-08d02t04.flac:21234456b5cbee44a0f8327ac349bc0c
dso2012-12-08d02t05.flac:df1d4f4e7cc1c08e5b2d686173e6a42b
dso2012-12-08d02t06.flac:04b1758621324d629a9cf2936f21cdf7
dso2012-12-08d02t07.flac:54e3105fa2cbcca0b5e8726e7a9a78a2
dso2012-12-08d03t01.flac:9bf31c4e59ff4d3f3ae089495325e442
dso2012-12-08d03t02.flac:514a69fbcd511d51cae7f4ede983fe0e
dso2012-12-08d03t03.flac:a868cb5ede3f9249e98e4cff1be6bf47
dso2012-12-08d03t04.flac:33927063329f385e83bec55abbe4dc90
dso2012-12-08d03t05.flac:e2f6bf2b6ee9d9f8370856d4407b6e7c
dso2012-12-08d03t06.flac:820c18e23236ecd15ec938536541e977

Shntool

length expanded size cdr WAVE problems fmt ratio filename
0:57.09 10076012 B --- -- ---xx flac 0.3535 dso2012-12-08d01t01.flac
6:11.23 65498540 B --- -- ---xx flac 0.5079 dso2012-12-08d01t02.flac
7:38.74 80965292 B --- -- ---xx flac 0.5278 dso2012-12-08d01t03.flac
6:24.24 67794092 B --- -- ---xx flac 0.5327 dso2012-12-08d01t04.flac
7:51.68 83244380 B --- -- ---xx flac 0.4494 dso2012-12-08d01t05.flac
7:37.28 80680700 B --- -- ---xx flac 0.5096 dso2012-12-08d01t06.flac
2:26.08 25773260 B --- -- ---xx flac 0.5110 dso2012-12-08d01t07.flac
8:37.07 91215308 B --- -- ---xx flac 0.4817 dso2012-12-08d01t08.flac
6:37.65 70183724 B --- -- ---xx flac 0.5043 dso2012-12-08d01t09.flac
7:15.67 76891628 B --- -- ---xx flac 0.4680 dso2012-12-08d01t10.flac
16:42.52 176875148 B --- -- ---xx flac 0.5236 dso2012-12-08d01t11.flac
0:34.31 6070556 B --- -- ---xx flac 0.3377 dso2012-12-08d02t01.flac
5:10.04 54693452 B --- -- ---xx flac 0.4955 dso2012-12-08d02t02.flac
7:16.08 76929260 B --- -- ---xx flac 0.5249 dso2012-12-08d02t03.flac
10:46.31 114027356 B --- -- ---xx flac 0.5139 dso2012-12-08d02t04.flac
14:52.06 157362956 B --- -- ---xx flac 0.4866 dso2012-12-08d02t05.flac
11:18.42 119698028 B --- -- ---xx flac 0.5103 dso2012-12-08d02t06.flac
16:08.71 170922236 B --- -- ---xx flac 0.4902 dso2012-12-08d02t07.flac
5:09.64 54658172 B --- -- ---xx flac 0.3415 dso2012-12-08d03t01.flac
13:20.37 141207068 B --- -- ---xx flac 0.5278 dso2012-12-08d03t02.flac
3:33.61 37716716 B --- -- ---xx flac 0.5104 dso2012-12-08d03t03.flac
14:35.32 154425308 B --- -- ---xx flac 0.4611 dso2012-12-08d03t04.flac
1:20.29 14180252 B --- -- ---xx flac 0.4404 dso2012-12-08d03t05.flac
6:55.21 73255436 B --- -- ---xx flac 0.4158 dso2012-12-08d03t06.flac
189:22.37 2004344880 B 0.4915 (24 files)











Checksumsdso2012-12-08d01t01.flac:0bf3d409ec7e34f8ecc13fbfe7b836d5
dso2012-12-08d01t02.flac:dac817bbaba07b6c1f61d597b0130866
dso2012-12-08d01t03.flac:ce6495dd7e91847a075cce7c885177d7
dso2012-12-08d01t04.flac:5dcab6e49210b6f699d5e9e18f4075a0
dso2012-12-08d01t05.flac:29575ace3b46aaa81ece095cd2fc6068
dso2012-12-08d01t06.flac:f315a231533e23ea9874783f562a54c1
dso2012-12-08d01t07.flac:8fec7701d13f145ee478ba4ded7b71eb
dso2012-12-08d01t08.flac:c629844973b1cbde35ad3c95bfea51ea
dso2012-12-08d01t09.flac:0ba2da1579378ba01bd277e38032b576
dso2012-12-08d01t10.flac:b7f407765749a055fcf51fcfdd7af9bd
dso2012-12-08d01t11.flac:3db10862ca5b1f907e1a8df559cf6f3e
dso2012-12-08d02t01.flac:4851c965d3e145f62cf9d71401a2c6d5
dso2012-12-08d02t02.flac:2685011a250e82e9219ae1053e2aca18
dso2012-12-08d02t03.flac:61392272e27b98d8097c79d94781ff6e
dso2012-12-08d02t04.flac:21234456b5cbee44a0f8327ac349bc0c
dso2012-12-08d02t05.flac:df1d4f4e7cc1c08e5b2d686173e6a42b
dso2012-12-08d02t06.flac:04b1758621324d629a9cf2936f21cdf7
dso2012-12-08d02t07.flac:54e3105fa2cbcca0b5e8726e7a9a78a2
dso2012-12-08d03t01.flac:9bf31c4e59ff4d3f3ae089495325e442
dso2012-12-08d03t02.flac:514a69fbcd511d51cae7f4ede983fe0e
dso2012-12-08d03t03.flac:a868cb5ede3f9249e98e4cff1be6bf47
dso2012-12-08d03t04.flac:33927063329f385e83bec55abbe4dc90
dso2012-12-08d03t05.flac:e2f6bf2b6ee9d9f8370856d4407b6e7c
dso2012-12-08d03t06.flac:820c18e23236ecd15ec938536541e977
TypeDark Star Orchestra
Last seederLast activity 6 days, 17:10:42 ago
Size939.59 MB (985234315 Bytes)
Added2012-12-09 09:05:43
Views0
Hits366
Snatched100 times
Upped byzmanatl
Num files
[See full list]
25 files
Peers
[See full list]
0 seeders, 1 leecher = 1 peer total

Add a comment

LAStubbe 2012-12-09 09:20:56
Looks like you got a good one!
bvaz 2012-12-09 09:27:39
nice work. good tome hanging with you.
zmanatl 2012-12-09 12:30:54
Here is last night's show. Never been to this venue before. Shaped like a semi-circle with a balcony that wraps around the floor. Met Brian about 10 minutes before doors. We decided the 10th row would sound very good judging the overall stage and placement of the stacks. We set up 1 seat in as we anticipated wooks would be present in the aisles. Good call as the aisles were NEVER kept clear. Was there any security? It was a free for all. It was GA with seats on the floor. Anyone could smoke weed or cigarettes.

As DSO took the stage, I remembered Jeff Chimenti was filling in for Baracco on keys. I thought it was strange that he had no vocal mic set up at any of his 3 keyboards. We got a Jack Straw>Bertha opener, and with Lisa on vocals, it could have been 77 or 78 show. That all ended with Lazy River and I realized it was a random setlist. I prefer those kind of shows myself. I was hoping Jeff would do a Garcia tune mixed in.

After an 80 minute opening set, Help>Slip>Stranger kicked off the 2nd set. I got 3 of my all time favorite Jerry Tunes in this set, Mission In The Rain, Eyes Of The World, and a nice stout Morning Dew! Only got to see 1 GD version of mission, 6/76 Boston Music Hall. Nice treat for me. Jeff Chimenti absolutely killed his solo for about 3 minutes during the Eyes, totally awesome. Jeff m destroyed the Dew! Grat to hang with Brian once again. Thank you Dave for the ticket hookup!

Here are a few of my amateur videos to give you a taste:
Mission In The Rain:
http://youtu.be/92jUN7DrUIc

Help On The Way >
Slipknot! >
Feel Like A Stranger:
http://youtu.be/m1IF8RcKkPs

Shakedown Street:
http://youtu.be/cA_8zhWh8nE

Black-Throated Wind:
http://youtu.be/sM-Fvv_LZ7I

Might As Well:
http://youtu.be/35OacQ-uFas

Enjoy Show #179 of 2012!
beenwaytoolongatsea 2012-12-09 13:50:49
does anyone know if jeff c has ever sat in with dark star before? or was this the first and only so far .... ?
axomxa 2012-12-10 01:17:00
This is going to be nice. Thanks zman and Brian.

(I did not end up doing the Creek but listened to the source on LMA. Great You Let Me Down Again!)

Add a comment


http://etree.org : http://db.etree.org : http://forums.etree.org : http://wiki.etree.org : Legal : RSS Feed

Contents designed & maintained by the etree.org volunteers
1998-2014, etree.org, except where noted. All Rights Reserved.
Read our terms of service and privacy guidelines