bt.etree.org
etree.org Community Bittorrent Tracker
ArtistGrateful Dead
Showgd82-04-12.95638.sbd.miller.sbeok.t-flac16
Report this as
non-Trade-Friendly
Email us
Torrentgd82-04-12.95638.sbd.miller.sbeok.t-flac16.torrent (click to download)
Downloads asgd82-04-12.95638.sbd.miller.sbeok.t-flac16
Info hash318f2d92625144c327ee2d8c5529a38d0d89c4e8
db linkhttp://db.etree.org/shn/95638 | Show | Source
DescriptionThis is a tagged version of shnid: 95638

Grateful Dead
April 12, 1982
Nassau Coliseum
Uniondale, NY

Recording Info:
SBD -> Cassette Master -> Reel -> Dat (48k)

Transfer Info:
Dat (Sony D8) -> VX Pocket 440 -> Sharp MV10 -> Samplitude Professional v8.01 ->
FLAC -> Adobe Audition v1.5 -> Samplitude Professional v10.1 -> FLAC
(3 Discs Audio / 2 Discs FLAC)

All Transfers and Mastering By Charlie Miller
charliemiller87@earthlink.net
November 5, 2008

Patch Info:
Audience Recording (shnid=9508) supplies:
Sugaree (0:49 - 0:56)
Sugar Magnolia (complete track)
Satisfaction (complete track)

Notes:
-- Set 2 is seamless
-- This is a remastered pitch corrected version of shnid=32014
-- Thanks to Joe B. Jones for his help with the pitch correction
___________________________________________________________________________

--Set 1--
101-d1t01 - Iko Iko
102-d1t02 - New Minglewood Blues
103-d1t03 - Peggy-O
104-d1t04 - Mama Tried ->
105-d1t05 - Mexicali Blues
106-d1t06 - Bird Song
107-d1t07 - C C Rider
108-d1t08 - Tennessee Jed ->
109-d1t09 - Looks Like Rain ->
110-d1t10 - Deal

--Set 2--
201-d2t01 - Man Smart (Woman Smarter) ->
202-d2t02 - Sugaree
203-d2t03 - Estimated Prophet ->
204-d2t04 - Uncle John's Band ->
205-d2t05 - Drums ->
206-d3t01 - Space ->
207-d3t02 - The Other One ->
208-d3t03 - Stella Blue ->
209-d3t04 - Sugar Magnolia

--Encore--
210-d3t05 - (I Can't get No) Satisfaction
___________________________________________________________________________

Tagging notes:
Show information is embedded within the header of each flac file.
It will display on any player capable of directly playing flac files.
If converted to wav during processing, all tags will be stripped,
however audio data will remain unaffected.
If you must transcode to a lossy format, do so directly Flac > Lossy.
Use ffp to validate audio integrity.
Md5 values will change if tagging is altered.
B. Proctor 1-16-11
___________________________________________________________________________


SHNTOOL OUTPUT:
length expanded size cdr WAVE problems filename
6:02.37 63943868 --- -- ----- gd82-04-12d1t01.wav
8:13.38 87054620 --- -- ----- gd82-04-12d1t02.wav
7:35.27 80325548 --- -- ----- gd82-04-12d1t03.wav
2:32.38 26902220 --- -- ----- gd82-04-12d1t04.wav
5:32.39 58656572 --- -- ----- gd82-04-12d1t05.wav
8:53.33 94098860 --- -- ----- gd82-04-12d1t06.wav
8:20.10 88223564 --- -- ----- gd82-04-12d1t07.wav
8:49.42 93414428 --- -- ----- gd82-04-12d1t08.wav
8:01.47 84958988 --- -- ----- gd82-04-12d1t09.wav
7:26.04 78683852 --- -- ----- gd82-04-12d1t10.wav
5:50.38 61829420 --- -- ----- gd82-04-12d2t01.wav
14:33.01 153999596 --- -- ----- gd82-04-12d2t02.wav
11:39.40 123397724 --- -- ----- gd82-04-12d2t03.wav
6:28.63 68591420 --- -- ----- gd82-04-12d2t04.wav
9:41.40 102582524 --- -- ----- gd82-04-12d2t05.wav
6:14.65 66126524 --- -- ----- gd82-04-12d3t01.wav
8:15.41 87414476 --- -- ----- gd82-04-12d3t02.wav
11:18.53 119723900 --- -- ----- gd82-04-12d3t03.wav
10:41.49 113187692 --- -- ----- gd82-04-12d3t04.wav
6:21.32 67283708 --- -- ----- gd82-04-12d3t05.wav
162:32.62 1720399504 B (totals for 20 files)
Checksumsgd82-04-12d1t01.flac:a4d82cd4613656851eb6e79cd37bba70
gd82-04-12d1t02.flac:ebaddeeb0d33a337b843007c794d3f1f
gd82-04-12d1t03.flac:295ddb74d1203a51b544ed385556ba5c
gd82-04-12d1t04.flac:ff87a2b9a851edb7b848cacff3c227de
gd82-04-12d1t05.flac:ddeaa11604237e7fc07cac34a1c7c6c7
gd82-04-12d1t06.flac:40b43e83ed95867c966fd884272739d4
gd82-04-12d1t07.flac:1a86e00cd3cc96c62adc02ac21de1208
gd82-04-12d1t08.flac:a8ee13933bfce2c8b34b750fb2c68f32
gd82-04-12d1t09.flac:fdb371a5505e71c1013a4bd5c5c619e7
gd82-04-12d1t10.flac:382b1d9b7ef171c1065a55800ed4ed50
gd82-04-12d2t01.flac:9df247d62c94edabaa4c1d0ef5ad4261
gd82-04-12d2t02.flac:f7f42d759c964ed6f17ac44a24616c51
gd82-04-12d2t03.flac:4c0067ed3ed9bcabbcef26a1639be471
gd82-04-12d2t04.flac:ff22e2915c63e4425bd104e1b421bf3a
gd82-04-12d2t05.flac:ee94c4f8a8f63cc71f1e3ba9d755d0c5
gd82-04-12d3t01.flac:3fa3197fa55d990416ac1bfcd3b323a8
gd82-04-12d3t02.flac:0353fb9ea6bb88a4ccf05f979c1bb162
gd82-04-12d3t03.flac:32c384abeaad8fb080288fe07ae649fb
gd82-04-12d3t04.flac:c61b7417037188dbc29ac2d0fb709b8b
gd82-04-12d3t05.flac:f561bc0511fe4431c5c086fb2f66c480
TypeGrateful Dead
Last seederLast activity 15:07 ago
Size1.016 GB (1091193022 Bytes)
Added2012-12-09 11:02:25
Views4
Hits604
Snatched388 times
Upped bySpiralLightofVenus
Num files
[See full list]
23 files
Seeders
[Hide list]
3 Seeder(s)
ip:portclient
version
ul
bytes
dl
bytes
ratiocompleteul
rate
dl
rate
time
connected
time
left
idle
162.197.121.xxx:6881 0 B 0 B N/A 100.00%
N/A N/A 4 days, 23:23:56 N/A 22:05
65.27.187.xxx:25992 μtorrent 3.4.2.0 0 B 0 B N/A 100.00%
N/A N/A 9:45:25 N/A 15:07
73.167.164.xxx:40969 μtorrent 3.3.0.0 0 B 0 B N/A 100.00%
N/A N/A 10:39:07 N/A 8:45
0 of 3 firewalled (0%) 100.00%
N/AN/A
Leechers
[Hide list]
0 Leecher(s)

Add a comment

jerome70 2012-12-09 11:44:07
thank you! satis-fact-ion!
cryptical17 2012-12-09 19:29:27
Charile was this show any better than the night before?
cryptical17 2012-12-09 19:29:43
Charlie was this show better than the night before?
charlie miller 2012-12-09 20:29:30
bobby was drunk but it was a killer show.
bdelyon 2012-12-10 09:31:33
A drunk Weir is always a fun Weir. A must download fa shore. Thanks CM
opener17 2013-01-07 20:10:15
ty

Add a comment


http://etree.org : http://db.etree.org : http://forums.etree.org : http://wiki.etree.org : Legal : RSS Feed

Contents designed & maintained by the etree.org volunteers
1998-2014, etree.org, except where noted. All Rights Reserved.
Read our terms of service and privacy guidelines