bt.etree.org
etree.org Community Bittorrent Tracker
ArtistZero
ShowZero Feb 20, 1995 Matrix Eugene, OR
Report this as
non-Trade-Friendly
Email us
Torrentzero1995-02-20matrix.torrent (click to download)
Downloads aszero1995-02-20matrix
Info hash4e733b4daf011bba7523373deca95279d382385f
DescriptionZero - February 20, 1995
WOW Hall - Eugene, OR

Recording Info:
SBD + (Stage) AKG C61 -> Mackie CR-1604 -> Dat (48k)

Transfer Info:
Dat (Tascam DA-20) -> Tascam SS-R05 -> Samplitude Professional v11.2.1 -> FLAC
(3 Discs Audio / 1 DVD FLAC)

All Transfers and Mastering By Charlie Miller
charlie@kimock.com
December 9, 2012

Notes:
-- Set 2 is seamless

Set 1:
d1t01 - Tuning
d1t02 - Anorexia
d1t03 - Tangled Hangers
d1t04 - Highway 61 Revisited
d1t05 - Rigor Mortis
d1t06 - The Shape I'm In
d1t07 - Home On The Range

Set 2:
d2t01 - High And Lonesome
d2t02 - Can't Keep A Good Man Down
d2t03 - Tell Me All About It ->
d2t04 - Pits Of Thunder ->
d2t05 - Junko Partner
d2t06 - It's Up To You
d3t01 - Golden Road

Encore:
d3t02 - La Fiesta
d3t03 - Mercury Blues


SHNTOOL OUTPUT:
length expanded size cdr WAVE problems fmt ratio filename
3:39.22 38683388 B --- -- ---xx flac 0.3218 zero1995-02-20d1t01.flac
8:42.29 92149052 B --- -- ---xx flac 0.5690 zero1995-02-20d1t02.flac
15:26.25 163405244 B --- -- ---xx flac 0.5362 zero1995-02-20d1t03.flac
12:25.56 131549756 B --- -- ---xx flac 0.5401 zero1995-02-20d1t04.flac
21:35.13 228468620 B --- -- ---xx flac 0.5349 zero1995-02-20d1t05.flac
6:54.15 73064924 B --- -- ---xx flac 0.5260 zero1995-02-20d1t06.flac
10:43.01 113427596 B --- -- ---xx flac 0.5492 zero1995-02-20d1t07.flac
21:15.51 225029996 B --- -- ---xx flac 0.5082 zero1995-02-20d2t01.flac
6:41.68 70896380 B --- -- ---xx flac 0.5199 zero1995-02-20d2t02.flac
9:07.57 96624908 B --- -- ---xx flac 0.4931 zero1995-02-20d2t03.flac
11:27.07 121203308 B --- -- ---xx flac 0.5171 zero1995-02-20d2t04.flac
8:48.55 93268604 B --- -- ---xx flac 0.4607 zero1995-02-20d2t05.flac
11:58.21 126704636 B --- -- ---xx flac 0.4937 zero1995-02-20d2t06.flac
13:32.14 143269772 B --- -- ---xx flac 0.5484 zero1995-02-20d3t01.flac
8:49.71 93482636 B --- -- ---xx flac 0.5003 zero1995-02-20d3t02.flac
5:32.61 58708316 B --- -- ---xx flac 0.5544 zero1995-02-20d3t03.flac
176:40.41 1869937136 B 0.5195 (16 files)
Checksumszero1995-02-20d1t01.flac:18137672ea260776618f382f3eca500b<br />
zero1995-02-20d1t02.flac:5df4b8604b63945701507ecac251aa6b<br />
zero1995-02-20d1t03.flac:2a2f2c2fc35957cb742e9aa59e5878a8<br />
zero1995-02-20d1t04.flac:5618dabce7fc0a3321960e140537a43f<br />
zero1995-02-20d1t05.flac:21dca88e6db122f6593663f3ea7b055d<br />
zero1995-02-20d1t06.flac:6ac4c34bc3f7b9cd3ea7939006256545<br />
zero1995-02-20d1t07.flac:9fb27c5a307992151b3ecce88ba8c3ec<br />
zero1995-02-20d2t01.flac:08fa4c0baf4df1d26850cb436432522f<br />
zero1995-02-20d2t02.flac:3e794db3073ae1103773f43ad3922ad7<br />
zero1995-02-20d2t03.flac:609977ae5db457c323509d390f2bcba4<br />
zero1995-02-20d2t04.flac:1191969127614bd7e171117177472a2b<br />
zero1995-02-20d2t05.flac:5f2ad3d7b71874dbcbe46311539f2fbd<br />
zero1995-02-20d2t06.flac:79d4e2ff011225326f050fa5e1a21fc9<br />
zero1995-02-20d3t01.flac:dbbe47fe973633dad982e0ab0f3df942<br />
zero1995-02-20d3t02.flac:268377f524abdd28c3270c344b06eb04<br />
zero1995-02-20d3t03.flac:b3a0832fb8cb0e1605266aae25b82b18<br />
<br />
<br />
d4c675aff4bc52014336b120dc52a1fa *zero1995-02-20d1t01.flac<br />
089e0da0dcc36519d18a57da0aa37557 *zero1995-02-20d1t02.flac<br />
8101fe6c1d96da7b776bf1cdebfc85b4 *zero1995-02-20d1t03.flac<br />
dc480d645afbd85321ed0ee2c462d537 *zero1995-02-20d1t04.flac<br />
88d80946dacb2fb369026967d151e7f4 *zero1995-02-20d1t05.flac<br />
631dcfea939da1ce4897848b1ba5e66b *zero1995-02-20d1t06.flac<br />
a3a677fc2f77bce4f02a08cdd3417119 *zero1995-02-20d1t07.flac<br />
75dc6afd5884f5f3a99debb5f6031775 *zero1995-02-20d2t01.flac<br />
b65217407c927276a769e0c7887a1f78 *zero1995-02-20d2t02.flac<br />
47e10c6f727a5999cdb25126ebf60da1 *zero1995-02-20d2t03.flac<br />
6b4d612f9c25069738780c09e5155f83 *zero1995-02-20d2t04.flac<br />
640d37c3e0dfe1ca3181d24642d855c8 *zero1995-02-20d2t05.flac<br />
46d4a97497ef8349f89413285d46c188 *zero1995-02-20d2t06.flac<br />
c75d9124b0811faf4ed904c9abb05f06 *zero1995-02-20d3t01.flac<br />
9aae8220eb71a5015f8b770cdc5a5728 *zero1995-02-20d3t02.flac<br />
f9f2ce80e8cbd53f4f012275380115b5 *zero1995-02-20d3t03.flac<br />
TypeZero
Last seederLast activity 26:08 ago
Size926.46 MB (971461516 Bytes)
Added2012-12-09 20:22:40
Views5
Hits508
Snatched292 times
Upped bycharlie miller
Num files
[See full list]
19 files
Peers
[See full list]
1 seeder, 0 leechers = 1 peer total

Add a comment

obaaron 2012-12-09 20:46:08
wow. this looks sublime! Thanks CM!
gainesvillegreen 2012-12-09 21:58:59
Thank you!
Devendraji 2012-12-09 22:01:29
Thanks again. By chance, do we know the identity of the taper? Would these be from a certain Mr. Fink...?
charlie miller 2012-12-09 22:23:58
Fink taped them but the Dats came from PC's collection.
Hal R 2012-12-10 10:32:25
Thank you for the Zero
damianf74 2012-12-10 13:00:47
I live right by the venue. I can t remember if I went to this show or was packing my bags to see the Boys in Oakland later on in the week. I've listened to this show a bunch....it rocks!

Thanks Charlie...
aldotorre 2012-12-10 15:18:46
thank you Charlie
Aldo Torre
mikefreed 2012-12-10 21:03:49
thank you for sharing

Add a comment


http://etree.org : http://db.etree.org : http://forums.etree.org : http://wiki.etree.org : Legal : RSS Feed

Contents designed & maintained by the etree.org volunteers
1998-2014, etree.org, except where noted. All Rights Reserved.
Read our terms of service and privacy guidelines