bt.etree.org
etree.org Community Bittorrent Tracker
ArtistChris Robinson
ShowChris Robinson Brotherhood - 2012-12-06, Belly Up Tavern, Solana Beach, Ca, <<akg391>bm2p+ ua-5 >>
Report this as
non-Trade-Friendly
Email us
Torrentcrb2012-12-06.akg391.ua5.flac16.torrent (click to download)
Downloads ascrb2012-12-06.akg391.ua5.flac16
Info hashfaf1376c927c9c5c018b81b0ff902ac9498a9bed
DescriptionChris Robinson Brotherhood
The Belly Up Tavern
Solana Beach, CA
December 6, 2012

Source: AKG 391 > UA-5 (BM2P+) > Sony M-10 (24/48)
Mic location: 8' high / ~15' back, 25' right of center / pointed at stacks
Transfer: Soundforge 9.0 (normalize) > R8Brain (dither/resample) > cdwav (track) > Flac Frontend (level8)
Tagging: Foobar2000 Live Show Tagger

Taped by Aaron Bowers (obaaron)

Setlist:

- Set One -
01. Let's Go, Let's Go, Let's Go
02. Jump the Turnstile
03. Crash on the Levee
04. Eagles on the Highway
05. Mother of Stone
06. Appaloosa
07. Star or Stone
08. Rosalee

- Set Two -
01. Intro
02. I'm Ready (1st)
03. Reflections in a Broker Mirror
04.
05. Vibration and Light Suite
06. Driving Wheel
07. 40 Days
08. Train Robbers
09. West L.A Fadeaway
10. Sunday Sound
11. Encore Crowd
12. Tumbleweed in Eden
13. Hello L.A Bye Bye Birmingham
Checksumslength expanded size cdr WAVE problems fmt ratio filename
6:53.39 72944972 B --- -- ---xx flac 0.4819 crb2012-12-06d1t01.flac
6:46.74 71792492 B --- -- ---xx flac 0.5029 crb2012-12-06d1t02.flac
6:33.65 69478124 B --- -- ---xx flac 0.5121 crb2012-12-06d1t03.flac
6:47.21 71844236 B --- -- ---xx flac 0.4656 crb2012-12-06d1t04.flac
7:55.61 83933516 B --- -- ---xx flac 0.5025 crb2012-12-06d1t05.flac
6:45.05 71453804 B --- -- ---xx flac 0.4351 crb2012-12-06d1t06.flac
11:12.31 118613756 B --- -- ---xx flac 0.4873 crb2012-12-06d1t07.flac
12:58.34 137319212 B --- -- ---xx flac 0.4837 crb2012-12-06d1t08.flac
0:42.40 7502924 B --- -- ---xx flac 0.3547 crb2012-12-06d2t01.flac
4:36.46 48794636 B --- -- ---xx flac 0.4830 crb2012-12-06d2t02.flac
7:57.57 84276908 B --- -- ---xx flac 0.4573 crb2012-12-06d2t03.flac
8:24.38 88995020 B --- -- ---xx flac 0.5309 crb2012-12-06d2t04.flac
5:12.23 55090940 B --- -- ---xx flac 0.4559 crb2012-12-06d2t05.flac
9:40.03 102319100 B --- -- ---xx flac 0.4340 crb2012-12-06d2t06.flac
9:30.43 100649180 B --- -- ---xx flac 0.5127 crb2012-12-06d2t07.flac
9:04.31 96034556 B --- -- ---xx flac 0.4655 crb2012-12-06d2t08.flac
10:14.66 108464876 B --- -- ---xx flac 0.5159 crb2012-12-06d2t09.flac
11:45.42 124460828 B --- -- ---xx flac 0.5069 crb2012-12-06d2t10.flac
1:19.34 14015612 B --- -- ---xx flac 0.4008 crb2012-12-06d2t11.flac
10:47.40 114224924 B --- -- ---xx flac 0.4724 crb2012-12-06d2t12.flac
5:25.35 57412364 B --- -- ---xx flac 0.4940 crb2012-12-06d2t13.flac
160:35.03 1699621980 B 0.4840 (21 files)

No errors occured.

crb2012-12-06d1t01.flac:000834f060f878b2532a27473f098bc9
crb2012-12-06d1t02.flac:048cf53d2d0c17e6a6ffab95901f6a0d
crb2012-12-06d1t03.flac:96bc2f16c966290b7accf9d612792434
crb2012-12-06d1t04.flac:427f63e777051a3146302aca325d47a9
crb2012-12-06d1t05.flac:f82505011dfa7b3fbe10e9b51581fb62
crb2012-12-06d1t06.flac:7c26e9df350bdc1eb78b47f2a0553eaf
crb2012-12-06d1t07.flac:7ef4337e73cbe85a2917e0102fea5c3d
crb2012-12-06d1t08.flac:612bf180466a6635d75ba7445a76525e
crb2012-12-06d2t01.flac:afacb566659fb4fa7c4e8755f327d2e1
crb2012-12-06d2t02.flac:41b89d31e90b9ed4a4c6af85be650bd4
crb2012-12-06d2t03.flac:3486d2113630447f69de2a253f037f46
crb2012-12-06d2t04.flac:d94c91b2b3962e3fe6e63f71f37ccea4
crb2012-12-06d2t05.flac:6741d4f34d02e25dff35c7b4830637f5
crb2012-12-06d2t06.flac:13dac3ecdf21ad8739fb71d43080da1b
crb2012-12-06d2t07.flac:b002a4905843e25b7922ed361e4a74db
crb2012-12-06d2t08.flac:4168c54e5af57c4549b38c69f52b83c4
crb2012-12-06d2t09.flac:4b6086603d71fa2637d1a57749c4ee5d
crb2012-12-06d2t10.flac:acdd1a7cbd3283206634162ca7bad5da
crb2012-12-06d2t11.flac:8a25d7e50c624b3f85515bd8b1fab88f
crb2012-12-06d2t12.flac:283d347e6dad73781f9ff3378dd3dc94
crb2012-12-06d2t13.flac:9b08cee608c94979cd5d961543d89f2c

No errors occured.

TypeChris Robinson
Last seederLast activity 2 days, 09:39:06 ago
Size784.50 MB (822609409 Bytes)
Added2012-12-09 20:37:11
Views0
Hits458
Snatched155 times
Upped byobaaron
Num files
[See full list]
25 files
Seeders
[Hide list]
0 Seeder(s)
Leechers
[Hide list]
0 Leecher(s)

Add a comment

obaaron 2012-12-09 20:42:21
Here is another flavor. I will try and get my ca-14 > 9200 pull up soon too.

Great show!
obaaron 2012-12-09 22:19:20
let me know what you guys think of the sound. Not the ideal location to tape from but I think it came out fairly nice!
cheesecadet 2012-12-10 00:43:39
Were you taping from the second tier just in front of the board or were you located elsewhere in the venue? Just curious.
rustystrings 2012-12-10 08:39:36
great band
obaaron 2012-12-10 10:04:00
second tier
obaaron 2012-12-10 10:04:53
I prefer the second tier even though its farther right than i'd like to be but I hate fighting off the crowd anywhere else on the floor.
GreenCrow 2012-12-10 13:14:56
Thanks for sharing!!

Cheers GreenCrow
tedyun 2012-12-12 08:32:38
Sound really nice obaaron! You're going to have to show me the secret to taping off to the side there!
obaaron 2012-12-12 20:32:11
lol Ted....yeah its not the ideal spot but there are a couple PA speakers that face that area next to the SBD so the sound is great...and loud!

Yeah its not a true stereo recording but you cant tape from DFC anywhere in that venue so I like that spot because its elevated off the floor and I can actually leave me gear during the show since its usually all friends in that row.

Give it a shot next time! I'll pm you my cell phone number at TS so we can get together to tape more shows! Great to meet ya!
obaaron 2012-12-12 21:07:30
...but your pull sounds better Ted came out nice!
seth01 2012-12-20 21:05:15
Thanks for your efforts.

Add a comment


http://etree.org : http://db.etree.org : http://forums.etree.org : http://wiki.etree.org : Legal : RSS Feed

Contents designed & maintained by the etree.org volunteers
1998-2014, etree.org, except where noted. All Rights Reserved.
Read our terms of service and privacy guidelines