bt.etree.org
etree.org Community Bittorrent Tracker
ArtistGrateful Dead
Showgd69-08-29.sbd.miller.123075.sbeok.flac16
Report this as
non-Trade-Friendly
Email us
Torrentgd69-08-29.sbd.miller.123075.sbeok.flac16.torrent (click to download)
Downloads asgd69-08-29.sbd.miller.123075.sbeok.flac16
Info hash98efdd64d454ab9f6d4b8a2e9a65c48bd8b99801
db linkhttp://db.etree.org/shn/123075 | Show | Source
DescriptionGrateful Dead - August 29, 1969
Family Dog At The Great Highway - San Francisco, CA

Recording Info:
SBD -> Master Reel -> Cassette -> Dat

Transfer Info:
Dat (Tascam DA-20) -> Tascam SS-R05 -> Samplitude Professional v11.2.1 -> FLAC
(2 Discs Audio / 1 Disc FLAC)

All Transfers and Mastering By Charlie Miller
charliemiller87@earthlink.net
December 9, 2012

Notes:
-- Disc change is seamless
-- Show will fit on one CD with an overburn
-- There is a splice at 1:26 into Good Lovin'

Setlist:
d1t01 - Casey Jones
d1t02 - Easy Wind
d1t03 - Me And My Uncle ->
d1t04 - High Time
d1t05 - New Orleans ->
d1t06 - Searchin' ->
d1t07 - Good Lovin'
d1t08 - Dire Wolf
d1t09 - I'm A King Bee
d2t01 - Turn On Your Lovelight


SHNTOOL OUTPUT:
length expanded size cdr WAVE problems fmt ratio filename
5:55.60 62763164 B --- -- ---xx flac 0.5985 gd69-08-29d1t01.flac
8:10.18 86478380 B --- -- ---xx flac 0.6213 gd69-08-29d1t02.flac
3:09.45 33445484 B --- -- ---xx flac 0.6122 gd69-08-29d1t03.flac
9:23.27 99376748 B --- -- ---xx flac 0.5161 gd69-08-29d1t04.flac
3:31.16 37258076 B --- -- ---xx flac 0.6046 gd69-08-29d1t05.flac
3:16.02 34579148 B --- -- ---xx flac 0.5900 gd69-08-29d1t06.flac
4:35.63 48658220 B --- -- ---xx flac 0.6108 gd69-08-29d1t07.flac
4:41.29 49636652 B --- -- ---xx flac 0.5952 gd69-08-29d1t08.flac
7:50.61 83051516 B --- -- ---xx flac 0.5716 gd69-08-29d1t09.flac
30:37.41 324143276 B --- -- ---xx flac 0.5895 gd69-08-29d2t01.flac
81:11.62 859390664 B 0.5862 (10 files)
Checksums4b1f1abeba9f4592a28f51cbff66e28f *gd69-08-29d1t01.flac
5f2a37b997bc5be27843ccf390cdecb5 *gd69-08-29d1t02.flac
80b67a9708398e536294dda8b32228d6 *gd69-08-29d1t03.flac
56cf119a08dc61b28e9f2adae731578c *gd69-08-29d1t04.flac
6f0a1f2b767fcfde4024a17a71b4f975 *gd69-08-29d1t05.flac
ea5ba6e1b0abe5d554517f4c3f5b3aeb *gd69-08-29d1t06.flac
31f345bf645ebce123886802b6f1fe33 *gd69-08-29d1t07.flac
f5dda3c785a78f695d004b348f46b0b0 *gd69-08-29d1t08.flac
e2daa1a3a4e2087b0aa53609f46ac385 *gd69-08-29d1t09.flac
2b89e380ceec965be1fa5691d7bb0ca3 *gd69-08-29d2t01.flac
TypeGrateful Dead
Last seederLast activity 21:12 ago
Size480.46 MB (503800486 Bytes)
Added2012-12-10 10:28:55
Views0
Hits1171
Snatched920 times
Upped byWHARFRAT73
Num files
[See full list]
13 files
Seeders
[Hide list]
8 Seeder(s)
ip:portclient
version
ul
bytes
dl
bytes
ratiocompleteul
rate
dl
rate
time
connected
time
left
idle
71.8.2.xxx:30446 251.12 MB 0 B 100.00%
0 B/s N/A 6 days, 04:35:38 N/A 19:19
50.1.51.xxx:58323 177.04 MB 0 B 100.00%
0 B/s N/A 6 days, 04:38:07 N/A 23:04
70.181.58.xxx:13133 μtorrent 3.2.1.0 94.21 MB 0 B 100.00%
0 B/s N/A 6 days, 04:31:28 N/A 26:36
162.197.121.xxx:6881 0 B 0 B N/A 100.00%
N/A N/A 3 days, 16:24:05 N/A 21:12
173.216.108.xxx:41244 0 B 0 B N/A 100.00%
N/A N/A 9:45:51 N/A 15:35
177.47.130.xxx:48673 μtorrent 3.3.2.0 0 B 0 B N/A 100.00%
N/A N/A 3:30:13 N/A 29:57
97.96.108.xxx:63366 μtorrent 3.3.0.0 0 B 0 B N/A 100.00%
N/A N/A 6 days, 04:31:58 N/A 31:28
72.225.145.xxx:43034 μtorrent 3.0.0.0 0 B 0 B N/A 100.00%
N/A N/A 4 days, 21:33:58 N/A 29:58
0 of 8 firewalled (0%) 100.00%
N/AN/A
Leechers
[Hide list]
0 Leecher(s)

Add a comment

djscomics 2012-12-10 12:53:53
Thanks for sharing this, always nice to have a Miller upgrade.....Kev
rovalle 2012-12-10 18:15:51
Yessssss! Muchisimos Thanks to Señor Miller
pscotton 2012-12-10 19:53:17
The venue for this and for all Family Dog shows on the Great Highway was Playland. Chet Helms used this moniker when he changed venues and wanted people to know who was putting on the shows there.
thecat18 2012-12-10 20:06:39
Thanks for sharing.
jerome70 2012-12-10 21:25:10
thanks! here's to hopin' the 28th shows up also?
charlie miller 2012-12-10 21:45:31
sure, why not
bonghitwillie 2012-12-10 21:53:12
mr charlie told me so
pscotton 2012-12-10 22:52:03
Again on venue: in spite of the posters and handbills this is like calling Winterland "Bill Graham Presents at Japantown".
charlie miller 2012-12-11 03:02:47
It's up on Lossless Legs

Mickey And The Hartbeats - August 28, 1969
The Family Dog At The Great Highway - San Francisco, CA

Recording Info:
SBD -> Cassette Master -> Dat -> CD

Transfer Info:
CD -> Adobe Audition v3.0 -> Samplitude Professional v11.2.1 -> FLAC
(1 Disc Audio / 1 Disc FLAC)

All Transfers and Mastering By Charlie Miller
charliemiller87@earthlink.net
December 10, 2012

Notes:
-- Show will fit on one disc with an overburn
-- My research shows that this is from the master
-- Thanks to Joe B. Jones for his help with the pitch correction

Setlist:
d1t01 - It's A Sin ->
d1t02 - Hi-Heel Sneakers
d1t03 - Dark Star ->
d1t04 - The Eleven


SHNTOOL OUTPUT:
length expanded size cdr WAVE problems fmt ratio filename
8:11.39 86704172 B --- -- ---xx flac 0.6218 gd69-08-28d1t01.flac
8:43.17 92297228 B --- -- ---xx flac 0.6230 gd69-08-28d1t02.flac
47:32.38 503182220 B --- -- ---xx flac 0.6263 gd69-08-28d1t03.flac
16:57.58 179535260 B --- -- ---xx flac 0.6322 gd69-08-28d1t04.flac
81:25.02 861718880 B 0.6267 (4 files)
Pisces 2012-12-11 22:25:26
Thanks!
charlie miller 2012-12-13 17:25:06
There are 3 flaws in Easy Wind. I have fixed them and have uploaded a fixed copy.
ashbox01 2012-12-20 23:34:02
Thanks! Looking forward to hearing this one!
ejb 2013-01-08 08:50:30
thank you

Add a comment


http://etree.org : http://db.etree.org : http://forums.etree.org : http://wiki.etree.org : Legal : RSS Feed

Contents designed & maintained by the etree.org volunteers
© 1998-2014, etree.org, except where noted. All Rights Reserved.
Read our terms of service and privacy guidelines