bt.etree.org
etree.org Community Bittorrent Tracker
ArtistGrateful Dead
Showgd69-08-30.sbd.miller.123076.sbeok.flac16
Report this as
non-Trade-Friendly
Email us
Torrentgd69-08-30.sbd.miller.123076.sbeok.flac16.torrent (click to download)
Downloads asgd69-08-30.sbd.miller.123076.sbeok.flac16
Info hasha68e35fff5d114306b942c56d25bfa2cd43a28c5
db linkhttp://db.etree.org/shn/123076 | Show | Source
DescriptionGrateful Dead - August 30, 1969
Family Dog At The Great Highway - San Francisco, CA

Recording Info:
SBD -> Master Reel -> Cassette -> Dat

Transfer Info:
Dat (Tascam DA-20) -> Tascam SS-R05 -> Samplitude Professional v11.2.1 -> FLAC
(2 Discs Audio / 1 Disc FLAC)

All Transfers and Mastering By Charlie Miller
charliemiller87@earthlink.net
December 9, 2012

Patch Info:
AUD -> 4th Gen Cassette (shnid = 122231) supplies:
Drums (4:58 - 5:30)

Notes:
-- Disc change is seamless

Setlist:
d1t01 - China Cat Sunflower ->
d1t02 - Doin' That Rag
d1t03 - Morning Dew
d1t04 - Easy Wind
d2t01 - Dark Star ->
d2t02 - Saint Stephen ->
d2t03 - The Eleven ->
d2t04 - Drums ->
d2t05 - High Time


SHNTOOL OUTPUT:
length expanded size cdr WAVE problems fmt ratio filename
5:37.36 59531516 B --- -- ---xx flac 0.6392 gd69-08-30d1t01.flac
8:25.68 89241980 B --- -- ---xx flac 0.6009 gd69-08-30d1t02.flac
11:06.29 117550652 B --- -- ---xx flac 0.5772 gd69-08-30d1t03.flac
8:26.15 89293724 B --- -- ---xx flac 0.6139 gd69-08-30d1t04.flac
28:51.28 305414300 B --- -- ---xx flac 0.5823 gd69-08-30d2t01.flac
6:25.41 68010476 B --- -- ---xx flac 0.5841 gd69-08-30d2t02.flac
6:25.36 67998716 B --- -- ---xx flac 0.6040 gd69-08-30d2t03.flac
5:48.73 61558940 B --- -- ---xx flac 0.5688 gd69-08-30d2t04.flac
6:32.06 69162956 B --- -- ---xx flac 0.5232 gd69-08-30d2t05.flac
87:39.32 927763260 B 0.5866 (9 files)
Checksums4cbc38d69149cba2e58650dedf0403bc *gd69-08-30d1t01.flac
b9980e193a2d14e77e630a38d7d6fb04 *gd69-08-30d1t02.flac
b81b4e77ffc5f83be9a82073ebdf7c75 *gd69-08-30d1t03.flac
9b5233340f36b386dd8e3ea350da568c *gd69-08-30d1t04.flac
9ba5c7aecba2b2c7be6fa930031ea894 *gd69-08-30d2t01.flac
7ec680f6fc01ebc72cdaa2d27abc7388 *gd69-08-30d2t02.flac
8840806c17530b19b7743138a2a3b18a *gd69-08-30d2t03.flac
4a91d77d7a5f6a164c863ccb1c368588 *gd69-08-30d2t04.flac
c9347b30386ba25203e9d752e40306fd *gd69-08-30d2t05.flac
TypeGrateful Dead
Last seederLast activity 7:14 ago
Size518.99 MB (544200688 Bytes)
Added2012-12-10 10:29:02
Views0
Hits1383
Snatched1050 times
Upped byWHARFRAT73
Num files
[See full list]
12 files
Seeders
[Hide list]
5 Seeder(s)
ip:portclient
version
ul
bytes
dl
bytes
ratiocompleteul
rate
dl
rate
time
connected
time
left
idle
76.204.125.xxx:32128 134.66 MB 0 B 100.00%
0 B/s N/A 2 days, 16:19:39 N/A 17:28
162.197.121.xxx:6881 5.10 MB 0 B 100.00%
0 B/s N/A 12 days, 01:37:48 N/A 20:08
142.105.40.xxx:43034 μtorrent 3.0.0.0 0 B 0 B N/A 100.00%
N/A N/A 4 days, 14:24:43 N/A 20:01
69.178.122.xxx:64065 μtorrent 3.3.2.0 0 B 0 B N/A 100.00%
N/A N/A 1:37:28 N/A 7:14
50.1.51.xxx:58323 0 B 0 B N/A 100.00%
N/A N/A 1 day, 18:26:01 N/A 24:11
0 of 5 firewalled (0%) 100.00%
N/AN/A
Leechers
[Hide list]
0 Leecher(s)

Add a comment

djscomics 2012-12-10 12:54:19
Thanks for sharing this, always nice to have a Miller upgrade.....Kev
rovalle 2012-12-10 18:14:30
Oh boy Oh boy Oh Boy...y gracias tambien
pscotton 2012-12-10 19:52:49
The venue for this and for all Family Dog shows on the Great Highway was Playland. Chet Helms used this moniker when he changed venues and wanted people to know who was putting on the shows there.
thecat18 2012-12-10 21:16:46
Thanks for sharing.
jerome70 2012-12-10 21:18:57
thanx! it's miller time! (but i am drinkin' flying dog,soon to be listening to the family dog shows)....cheers!
Pisces 2012-12-11 22:26:42
Thanks!
ejb 2013-01-08 08:50:12
thank you

Add a comment


http://etree.org : http://db.etree.org : http://forums.etree.org : http://wiki.etree.org : Legal : RSS Feed

Contents designed & maintained by the etree.org volunteers
1998-2014, etree.org, except where noted. All Rights Reserved.
Read our terms of service and privacy guidelines