bt.etree.org
etree.org Community Bittorrent Tracker
ArtistGrateful Dead
Showgd72-11-18.set2.sbd.miller.123077.sbeok.flac16
Report this as
non-Trade-Friendly
Email us
Torrentgd72-11-18.s2.sbd.miller.123077.sbeok.flac16.torrent (click to download)
Downloads asgd72-11-18.s2.sbd.miller.123077.sbeok.flac16
Info hasha0a4030fecddf6083fd6d2e83224417d567b8e5b
db linkhttp://db.etree.org/shn/123077 | Show | Source
DescriptionGrateful Dead - November 18, 1972
Hofheinz Pavilion - Houston, TX

Recording Info:
SBD -> Master Cassette -> Dat

Transfer Info:
Dat (Tascam DA-20) -> Tascam SS-R05 -> Adobe Audition v3.0 ->
Samplitude Professional v11.2.1 -> FLAC
(2 Discs Audio / 1 Disc FLAC)

All Transfers and Mastering By Charlie Miller
charliemiller87@earthlink.net
December 10, 2012

Notes:
-- Disc change is seamless
-- Thanks to Joe B. Jones for his help with the pitch correction

Set 2:
d1t01 - Bertha ->
d1t02 - Greatest Story Ever Told
d1t03 - He's Gone
d1t04 - Jack Straw
d1t05 - Deal
d1t06 - Playing In The Band
d1t07 - Mississippi Half-Step Uptown Toodeloo
d2t01 - Sugar Magnolia
d2t02 - One More Saturday Night

Encore:
d2t03 - Uncle John's Band


SHNTOOL OUTPUT:
length expanded size cdr WAVE problems fmt ratio filename
6:14.65 66126524 B --- -- ---xx flac 0.6055 gd72-11-18d1t01.flac
5:07.25 54213644 B --- -- ---xx flac 0.6226 gd72-11-18d1t02.flac
16:07.30 170649404 B --- -- ---xx flac 0.5845 gd72-11-18d1t03.flac
4:55.09 52059212 B --- -- ---xx flac 0.6030 gd72-11-18d1t04.flac
4:51.37 51419468 B --- -- ---xx flac 0.6002 gd72-11-18d1t05.flac
26:23.15 279276524 B --- -- ---xx flac 0.5927 gd72-11-18d1t06.flac
9:14.30 97796204 B --- -- ---xx flac 0.6071 gd72-11-18d1t07.flac
9:11.54 97323452 B --- -- ---xx flac 0.6128 gd72-11-18d2t01.flac
5:52.28 62158700 B --- -- ---xx flac 0.6092 gd72-11-18d2t02.flac
7:22.62 78114668 B --- -- ---xx flac 0.6124 gd72-11-18d2t03.flac
95:20.55 1009137800 B 0.6005 (10 files)
Checksums39f548c3452a23f749c10613f6014393 *gd72-11-18d1t01.flac
b0af24e6d6f3f7356c699c0a8d65f8df *gd72-11-18d1t02.flac
86888daa7633b9247df2431ff9a0e873 *gd72-11-18d1t03.flac
f385ad76c3bb3d3c3acf1dd376ed29ff *gd72-11-18d1t04.flac
c0d37ec7ec072a22e26f88ecbcf0d55c *gd72-11-18d1t05.flac
e6eea56bf02947490d69469c8370efbc *gd72-11-18d1t06.flac
90332de4e45c5e9cf37d5f25a75650da *gd72-11-18d1t07.flac
9d3dc7cbe986cb441aee431075b1adc8 *gd72-11-18d2t01.flac
01ac42337468398a2628d4a10cacdd7f *gd72-11-18d2t02.flac
83f75e9296ee89c427799004a64c7b2e *gd72-11-18d2t03.flac
TypeGrateful Dead
Last seederLast activity 14:17 ago
Size577.95 MB (606024436 Bytes)
Added2012-12-10 10:29:08
Views0
Hits1231
Snatched925 times
Upped byWHARFRAT73
Num files
[See full list]
13 files
Peers
[See full list]
4 seeders, 0 leechers = 4 peers total

Add a comment

djscomics 2012-12-10 12:54:36
Thanks for sharing this, always nice to have a Miller upgrade.....Kev
sprobeck 2012-12-10 13:34:42
Awesome! THanks!!
rovalle 2012-12-10 18:17:15
Yowsuh...y mucho grass tambien...
albertpujols 2012-12-10 20:52:33
Best. Playin. Ever.

Thank'y!!
thecat18 2012-12-10 21:17:16
Thanks for sharing.
dewey72 2012-12-10 21:24:15
Thank you!
Pisces 2012-12-11 08:49:22
Thanks!
voyces 2012-12-20 22:34:17
Thanks!
opener17 2013-01-05 18:57:26
ty
subji 2013-02-19 00:42:11
thanks
jazzlady 2014-09-02 13:17:50
Thank you very much for this. I am glad it is here.

I just found a small post-it note which I have had since the Nineties when I was on the GD mailing list (online). Aside from some work notes, this post-it says 11-18-72 Playin" #1 (best version for someone) Jerry, Phil too. I am glad that after nearly 20 years I get to hear this Playin'! The same note also says 5-3-72 Other One ~45 min. I am looking for that one next. :-)

Add a comment


http://etree.org : http://db.etree.org : http://forums.etree.org : http://wiki.etree.org : Legal : RSS Feed

Contents designed & maintained by the etree.org volunteers
1998-2014, etree.org, except where noted. All Rights Reserved.
Read our terms of service and privacy guidelines