bt.etree.org
etree.org Community Bittorrent Tracker
ArtistGrateful Dead
Showgd85-09-03.sbd.miller.123078.sbeok.flac16
Report this as
non-Trade-Friendly
Email us
Torrentgd85-09-03.sbd.miller.123078.sbeok.flac16.torrent (click to download)
Downloads asgd85-09-03.sbd.miller.123078.sbeok.flac16
Info hash58e3e0ab89301a383fe713043829d3ee6117698f
db linkhttp://db.etree.org/shn/123078 | Show | Source
DescriptionGrateful Dead - September 3, 1985
Starlight Theatre - Kansas City, MO

Recording Info:
SBD -> Cassette Master -> Cassette -> Dat -> CD

Transfer Info:
CD -> Adobe Audition v3.0 -> Samplitude Professional v11.2.1 -> FLAC
(2 Discs Audio / 1 DVD FLAC)

All Transfers and Mastering By Charlie Miller
charliemiler87@earthlink.net
December 10, 2012

Patch Info:
Schoeps CMC4/MK41 + Schoeps CMC4/MK2 -> PCM (shnid=27250) supplies:
It's All Over Now, Baby Blue (6:33 - end of track)

Notes:
-- The pitch is not perfect but it's a lot better
-- Thanks to Joe B. Jones for his help with the pitch correction

Set 1:
d1t01 - Tuning
d1t02 - Feel Like A Stranger
d1t03 - They Love Each Other
d1t04 - Little Red Rooster
d1t05 - Dire Wolf
d1t06 - Cassidy
d1t07 - Big Railroad Blues
d1t08 - The Music Never Stopped ->
d1t09 - Don't Ease Me In

Set 2:
d2t01 - That's It For The Other One ->
d2t02 - Eyes Of The World ->
d2t03 - Don't Need Love ->
d2t04 - Drums ->
d2t05 - Space ->
d2t06 - Nobody's Fault But Mine ->
d2t07 - Truckin' ->
d2t08 - Smokestack Lightnin' ->
d2t09 - Comes A Time ->
d2t10 - Turn On Your Lovelight

Encore:
d2t11 - It's All Over Now, Baby Blue


SHNTOOL OUTPUT:
length expanded size cdr WAVE problems fmt ratio filename
0:55.07 9718508 B --- -- ---xx flac 0.5308 gd85-09-03d1t01.flac
7:36.67 80596028 B --- -- ---xx flac 0.6496 gd85-09-03d1t02.flac
10:24.38 110163020 B --- -- ---xx flac 0.6119 gd85-09-03d1t03.flac
8:42.69 92243132 B --- -- ---xx flac 0.6443 gd85-09-03d1t04.flac
4:40.41 49488476 B --- -- ---xx flac 0.6360 gd85-09-03d1t05.flac
5:38.61 59766716 B --- -- ---xx flac 0.6680 gd85-09-03d1t06.flac
4:00.11 42361916 B --- -- ---xx flac 0.6894 gd85-09-03d1t07.flac
6:55.64 73356572 B --- -- ---xx flac 0.6444 gd85-09-03d1t08.flac
3:01.49 32043692 B --- -- ---xx flac 0.6679 gd85-09-03d1t09.flac
11:40.12 123508268 B --- -- ---xx flac 0.6152 gd85-09-03d2t01.flac
10:41.45 113178284 B --- -- ---xx flac 0.6430 gd85-09-03d2t02.flac
6:11.30 65515004 B --- -- ---xx flac 0.6119 gd85-09-03d2t03.flac
6:00.69 63666332 B --- -- ---xx flac 0.5707 gd85-09-03d2t04.flac
10:11.56 107912156 B --- -- ---xx flac 0.5618 gd85-09-03d2t05.flac
4:49.44 51083132 B --- -- ---xx flac 0.5856 gd85-09-03d2t06.flac
6:04.05 64221404 B --- -- ---xx flac 0.6242 gd85-09-03d2t07.flac
2:50.55 30117404 B --- -- ---xx flac 0.6030 gd85-09-03d2t08.flac
6:32.13 69179420 B --- -- ---xx flac 0.5879 gd85-09-03d2t09.flac
6:45.25 71500844 B --- -- ---xx flac 0.6020 gd85-09-03d2t10.flac
8:07.41 86003276 B --- -- ---xx flac 0.5934 gd85-09-03d2t11.flac
131:51.52 1395623584 B 0.6179 (20 files)
Checksums8a98fb433c8f5b72c0d01fff3f922611 *gd85-09-03d1t01.flac
f370a19285d805a7778071997bbc9c1a *gd85-09-03d1t02.flac
de685044159ba6a281334e1f566db130 *gd85-09-03d1t03.flac
7084d3aa4c2c303e0836580dc2b40256 *gd85-09-03d1t04.flac
57bbc8814971453fb85dd5e3fd0d5745 *gd85-09-03d1t05.flac
527fc50d95482b0e02124530141e5b8f *gd85-09-03d1t06.flac
aa500d8f49cd7a6ceecb85b0bd915723 *gd85-09-03d1t07.flac
981206e94a11d56f0c0b6a91eeaced19 *gd85-09-03d1t08.flac
118afdd7dd87c85328231d0eea3e7646 *gd85-09-03d1t09.flac
61823e5d732608860bf0768f303bb399 *gd85-09-03d2t01.flac
c75f1ab206fed6d0482649e1ca6c198c *gd85-09-03d2t02.flac
4351a5e9370fe56af77873f01347ec49 *gd85-09-03d2t03.flac
fc2c9ae7a775a5b3a6cf3572cb64dfc1 *gd85-09-03d2t04.flac
698f507f6d883222a397237dab19f491 *gd85-09-03d2t05.flac
b92d7ecbb20aab3ca44d81cf262e1089 *gd85-09-03d2t06.flac
4c929ac3e4ffe973cd290de14a605d72 *gd85-09-03d2t07.flac
80fc2c4c0859f6101c7f6acb98e06e70 *gd85-09-03d2t08.flac
07e72519308dff02bf2480b9affff486 *gd85-09-03d2t09.flac
a0c119636484f89f2e0320432b39ac2d *gd85-09-03d2t10.flac
9f197a52a55c55b355aa95ff5da0227b *gd85-09-03d2t11.flac
TypeGrateful Dead
Last seederLast activity 13:04 ago
Size822.39 MB (862341464 Bytes)
Added2012-12-10 10:29:14
Views0
Hits986
Snatched693 times
Upped byWHARFRAT73
Num files23 files
File List
[Hide list]
filenamesizemd5
gd85-09-03d2t01.flac72.46 MBN/A
gd85-09-03d2t02.flac69.40 MBN/A
gd85-09-03d1t03.flac64.28 MBN/A
gd85-09-03d2t05.flac57.82 MBN/A
gd85-09-03d1t04.flac56.68 MBN/A
gd85-09-03d1t02.flac49.93 MBN/A
gd85-09-03d2t11.flac48.67 MBN/A
gd85-09-03d1t08.flac45.08 MBN/A
gd85-09-03d2t10.flac41.05 MBN/A
gd85-09-03d2t09.flac38.78 MBN/A
gd85-09-03d2t07.flac38.23 MBN/A
gd85-09-03d2t03.flac38.23 MBN/A
gd85-09-03d1t06.flac38.08 MBN/A
gd85-09-03d2t04.flac34.65 MBN/A
gd85-09-03d1t05.flac30.02 MBN/A
gd85-09-03d2t06.flac28.53 MBN/A
gd85-09-03d1t07.flac27.85 MBN/A
gd85-09-03d1t09.flac20.41 MBN/A
gd85-09-03d2t08.flac17.32 MBN/A
gd85-09-03d1t01.flac4.92 MBN/A
gd85-09-03.123078.txt3.0 kBN/A
gd85-09-03.md51.1 kBN/A
gd85-09-03.ffp1.1 kBN/A
Peers
[See full list]
2 seeders, 0 leechers = 2 peers total

Add a comment

raygun 2012-12-10 13:39:28
Thanks for the upgrade!
Was 2nd row right in front of Jerry!
Very cool theater.
sprobeck 2012-12-10 13:42:26
Sweet, thanks!
poizon45 2012-12-10 20:39:47
hey thanks!
thecat18 2012-12-10 21:19:26
Thanks for sharing.
garcialives 2012-12-11 15:54:43
Thanks, I love to hear the Crypticals from this tour. I didn't catcha any of them at the time.
92gli 2012-12-11 18:56:06
The most over-rated show of the 80's.

<Ducks and runs for cover>
dewey72 2013-02-22 16:46:45
Heartily disagree with aforementioned remark. This show can be listened to time and again. The only weak spot is Cryptical but who can complain about that?!? Blessed just to have it in the line up.

Add a comment


http://etree.org : http://db.etree.org : http://forums.etree.org : http://wiki.etree.org : Legal : RSS Feed

Contents designed & maintained by the etree.org volunteers
1998-2014, etree.org, except where noted. All Rights Reserved.
Read our terms of service and privacy guidelines