bt.etree.org
etree.org Community Bittorrent Tracker
ArtistDave Matthews Band
ShowDave Matthews Band TD Garden Boston, Massachusetts 12/9/2012 (Schoeps CCM4V'S FOB)
Report this as
non-Trade-Friendly
Email us
Torrentdmb2012-12-09.flac16.torrent (click to download)
Downloads asdmb2012-12-09.flac16
Info hashf6bbd5306089c7354a1381ca42960171aebc749d
db linkhttp://db.etree.org/shn/123168 | Show | Source
DescriptionDave Matthews Band
TD Garden
Boston, Massachusetts
12/9/2012

Source: Schoeps CCM4V'S(din)>Lunatec V2>Benchmark AD2K>
Sound Devices 722 (24/48)
FOB/DFC/KFC/ZFC/AARP 8' High
DSP: Sound Devices 722>Sound Forge 9.0>CD Wave>flac(16)
Recorded By: Z-Man
Seeded By: Z-Man

Disc I

01 Greeting
02 Squirm
03 Broken Things
04 Why I Am
05 #41
06 Belly Belly Nice
07 Roof Top
08 So Damn Lucky
09 If Only

Disc II

01 The Riff >
02 Water Into Wind >
03 Drunken Soldier
04 Granny >
05 Dave Jam As Stefan Has Technical Difficulties
06 Lie In Our Graves
07 What Would You Say
08 Band Introductions
09 The Song That Jane Likes
10 Snow Outside

Disc III

01 Time Bomb
02 Two Step >
03 Drum Solo >
04 Two Step
Encore:
05 Thanks
06 *Baby Blue
07 Ants Marching
08 Thank You, For Lettin' Me, Be Mice Elf

* Dave Solo Acoustic

Flac Fingerprint

dmb2012-12-09d01t01.flac:9cfd2924547fa166c7e7a84859c3dee0
dmb2012-12-09d01t02.flac:0431ced90c4c126396b0034371854b0a
dmb2012-12-09d01t03.flac:a9e8a034d2954e9d747f9311c820b646
dmb2012-12-09d01t04.flac:4255e39096b7760358814bb22981df94
dmb2012-12-09d01t05.flac:6e487fea4301495e16f41262ba35ad46
dmb2012-12-09d01t06.flac:9ee43e36a18d45972000477ec58f3c95
dmb2012-12-09d01t07.flac:fba9200e32c9d94004881a702c4f8176
dmb2012-12-09d01t08.flac:5b0f4904f93aeb961ed96445751bff13
dmb2012-12-09d01t09.flac:d4e557e470f32177f1707798886345bd
dmb2012-12-09d02t01.flac:f49b61be8ec3d2d61c4a492cf757f7f7
dmb2012-12-09d02t02.flac:990dacde98f78ae9480609270eb9539e
dmb2012-12-09d02t03.flac:35b5ea5ba15f30b83c9aafcd655a9f0b
dmb2012-12-09d02t04.flac:e1da12130b873aab47f16868c9fcdd8a
dmb2012-12-09d02t05.flac:4b526cd0809e4fa0e5fca4e7ba9f334f
dmb2012-12-09d02t06.flac:582a85b4572eaabc005648396f67cc90
dmb2012-12-09d02t07.flac:4e64f7cca5fc23c4c0f3fc75055210e4
dmb2012-12-09d02t08.flac:d38b8ff020b5a31d0d35081e8da0a223
dmb2012-12-09d02t09.flac:6efe3c31bb32e47847cce185e9afad3e
dmb2012-12-09d02t10.flac:17e23f9e5a5357f002086999a4ca12dc
dmb2012-12-09d03t01.flac:6707915473a80c263289e719d9e4d559
dmb2012-12-09d03t02.flac:62b3a2284450781164acd39088529c73
dmb2012-12-09d03t03.flac:06a67bd0c255f90640a3f4e5f9cd8a3f
dmb2012-12-09d03t04.flac:59ff0e372613a8c23914b78eb45de28a
dmb2012-12-09d03t05.flac:9bcba82ea2f3083f40350c644b0865ba
dmb2012-12-09d03t06.flac:3636dcc94826d92560922d6b15e5facb
dmb2012-12-09d03t07.flac:716b4f8a20331ae6f2ca0d10db3f4f16
dmb2012-12-09d03t08.flac:c9d676dd0e70c0a5df37cca6bd430251

Shntool

length expanded size cdr WAVE problems fmt ratio filename
1:46.44 18801932 B --- -- ---xx flac 0.3834 dmb2012-12-09d01t01.flac
6:27.52 68389148 B --- -- ---xx flac 0.5303 dmb2012-12-09d01t02.flac
4:34.03 48340700 B --- -- ---xx flac 0.5358 dmb2012-12-09d01t03.flac
5:08.36 54415916 B --- -- ---xx flac 0.5301 dmb2012-12-09d01t04.flac
15:07.33 160072460 B --- -- ---xx flac 0.5200 dmb2012-12-09d01t05.flac
4:55.30 52108604 B --- -- ---xx flac 0.5452 dmb2012-12-09d01t06.flac
4:43.33 49998860 B --- -- ---xx flac 0.5671 dmb2012-12-09d01t07.flac
13:07.63 138975020 B --- -- ---xx flac 0.5238 dmb2012-12-09d01t08.flac
6:21.23 67262540 B --- -- ---xx flac 0.4861 dmb2012-12-09d01t09.flac
6:09.62 65237468 B --- -- ---xx flac 0.5055 dmb2012-12-09d02t01.flac
1:04.39 11381372 B --- -- ---xx flac 0.4011 dmb2012-12-09d02t02.flac
9:09.05 96855404 B --- -- ---xx flac 0.4959 dmb2012-12-09d02t03.flac
4:18.49 45626492 B --- -- ---xx flac 0.5691 dmb2012-12-09d02t04.flac
0:50.61 8963516 B --- -- ---xx flac 0.3586 dmb2012-12-09d02t05.flac
17:22.70 183973484 B --- -- ---xx flac 0.5018 dmb2012-12-09d02t06.flac
6:30.55 68925404 B --- -- ---xx flac 0.5817 dmb2012-12-09d02t07.flac
1:04.49 11404892 B --- -- ---xx flac 0.4904 dmb2012-12-09d02t08.flac
4:20.31 45936956 B --- -- ---xx flac 0.5535 dmb2012-12-09d02t09.flac
9:15.63 98050220 B --- -- ---xx flac 0.5188 dmb2012-12-09d02t10.flac
6:44.27 71329148 B --- -- ---xx flac 0.4789 dmb2012-12-09d03t01.flac
9:52.06 104442956 B --- -- ---xx flac 0.4919 dmb2012-12-09d03t02.flac
2:25.65 25730924 B --- -- ---xx flac 0.4895 dmb2012-12-09d03t03.flac
5:46.03 61041500 B --- -- ---xx flac 0.5660 dmb2012-12-09d03t04.flac
0:20.06 3542156 B --- -- ---xx flac 0.3819 dmb2012-12-09d03t05.flac
5:49.08 61582460 B --- -- ---xx flac 0.3440 dmb2012-12-09d03t06.flac
8:01.19 84893132 B --- -- ---xx flac 0.5811 dmb2012-12-09d03t07.flac
8:39.02 91556348 B --- -- ---xx flac 0.5278 dmb2012-12-09d03t08.flac
169:57.37 1798839012 B 0.5146 (27 files)




Checksumsdmb2012-12-09d01t01.flac:9cfd2924547fa166c7e7a84859c3dee0<br />
dmb2012-12-09d01t02.flac:0431ced90c4c126396b0034371854b0a<br />
dmb2012-12-09d01t03.flac:a9e8a034d2954e9d747f9311c820b646<br />
dmb2012-12-09d01t04.flac:4255e39096b7760358814bb22981df94<br />
dmb2012-12-09d01t05.flac:6e487fea4301495e16f41262ba35ad46<br />
dmb2012-12-09d01t06.flac:9ee43e36a18d45972000477ec58f3c95<br />
dmb2012-12-09d01t07.flac:fba9200e32c9d94004881a702c4f8176<br />
dmb2012-12-09d01t08.flac:5b0f4904f93aeb961ed96445751bff13<br />
dmb2012-12-09d01t09.flac:d4e557e470f32177f1707798886345bd<br />
dmb2012-12-09d02t01.flac:f49b61be8ec3d2d61c4a492cf757f7f7<br />
dmb2012-12-09d02t02.flac:990dacde98f78ae9480609270eb9539e<br />
dmb2012-12-09d02t03.flac:35b5ea5ba15f30b83c9aafcd655a9f0b<br />
dmb2012-12-09d02t04.flac:e1da12130b873aab47f16868c9fcdd8a<br />
dmb2012-12-09d02t05.flac:4b526cd0809e4fa0e5fca4e7ba9f334f<br />
dmb2012-12-09d02t06.flac:582a85b4572eaabc005648396f67cc90<br />
dmb2012-12-09d02t07.flac:4e64f7cca5fc23c4c0f3fc75055210e4<br />
dmb2012-12-09d02t08.flac:d38b8ff020b5a31d0d35081e8da0a223<br />
dmb2012-12-09d02t09.flac:6efe3c31bb32e47847cce185e9afad3e<br />
dmb2012-12-09d02t10.flac:17e23f9e5a5357f002086999a4ca12dc<br />
dmb2012-12-09d03t01.flac:6707915473a80c263289e719d9e4d559<br />
dmb2012-12-09d03t02.flac:62b3a2284450781164acd39088529c73<br />
dmb2012-12-09d03t03.flac:06a67bd0c255f90640a3f4e5f9cd8a3f<br />
dmb2012-12-09d03t04.flac:59ff0e372613a8c23914b78eb45de28a<br />
dmb2012-12-09d03t05.flac:9bcba82ea2f3083f40350c644b0865ba<br />
dmb2012-12-09d03t06.flac:3636dcc94826d92560922d6b15e5facb<br />
dmb2012-12-09d03t07.flac:716b4f8a20331ae6f2ca0d10db3f4f16<br />
dmb2012-12-09d03t08.flac:c9d676dd0e70c0a5df37cca6bd430251
TypeDave Matthews Band
Last seederLast activity 3 days, 06:12:20 ago
Size882.77 MB (925656445 Bytes)
Added2012-12-10 16:50:23
Views0
Hits740
Snatched341 times
Upped byzmanatl
Num files
[See full list]
28 files
Peers
[See full list]
0 seeders, 1 leecher = 1 peer total

Add a comment

dawarren33 2012-12-10 17:14:54
Thanks for your efforts and the music!
dahpissah 2012-12-10 21:42:23
Thanks for the quick up!
LAStubbe 2012-12-10 22:39:20
Way to brave the elements to get it done!
bigdaddybflo 2012-12-11 07:57:16
Cant believe you waisted time an a tix to record this hack. GO Z GO.
wheresjerry 2012-12-11 08:48:25
nice work zman!
sean612 2012-12-11 11:05:46
Thanks Z-Man!
Luckymudster 2012-12-11 11:19:50
Thank you so much for taping and sharing this with us!!
dfries 2012-12-12 13:05:49
I saw DMB last night at Gwinnett Arena. I started setting up my gear on the 1st row/rear floor dfc and realized I did not bring the microphones. Someone selling a ticket left me hanging and screwed me at the last minute, so I was in limbo on going or not... forgot to put the mic's in the bag. Crap. Good show, I enjoyed it. The sound was great on the floor...
jazzgtrl4 2012-12-13 16:48:20
^^ ive heard of forgetting things and i have myself, but never the main piece of equipment. Thanks Z

Add a comment


http://etree.org : http://db.etree.org : http://forums.etree.org : http://wiki.etree.org : Legal : RSS Feed

Contents designed & maintained by the etree.org volunteers
1998-2014, etree.org, except where noted. All Rights Reserved.
Read our terms of service and privacy guidelines