bt.etree.org
etree.org Community Bittorrent Tracker
ArtistOther
ShowJimmy Cliff TD Garden Boston, Massachusetts 12/9/2012 (Schoeps CCM4V'S FOB)
Report this as
non-Trade-Friendly
Email us
Torrentjimmy2012-12-09.flac16.torrent (click to download)
Downloads asjimmy2012-12-09.flac16
Info hasha49e612e7eb37edef618596ff584b5fa1940ad3c
DescriptionJimmy Cliff
TD Garden
Boston, Massachusetts
12/9/2012

Source: Schoeps CCM4V'S(din)>Lunatec V2>Benchmark AD2K>
Sound Devices 722 (24/48)
FOB/DFC/KFC/ZFC/AARP 7' High
DSP: Sound Devices 722>Sound Forge 9.0>CD Wave>flac(16)
Recorded By: Z-Man
Seeded By: Z-Man

Disc I

01 Introduction By Dave Matthews
02 You Can Get It If You Really Want It
03 Treat The Youths Right >
04 Rub-A-Dub Partner
05 I Can See Clearly Now The Rain Is Gone
06 World Is Upside Down
07 Save Our Planet Earth
08 Viet Nam
09 Sittin' Here In Limbo
10 Beautiful People
11 One More
12 Rivers Of Babylon

Flac Fingerprint

jimmy2012-12-09d01t01.flac:54fa197f25ed198312811e4efcfe4f87
jimmy2012-12-09d01t02.flac:f1217f5f7c56802d50b02cebb785175b
jimmy2012-12-09d01t03.flac:7815ec3851ba3fe3014d81555eadff4c
jimmy2012-12-09d01t04.flac:75b9c13926495959434a771d3f89d95c
jimmy2012-12-09d01t05.flac:0b4bffd68229d32e7f47f10b4045ab1c
jimmy2012-12-09d01t06.flac:a21fb73c017f3ef6ec493b1b71f1b244
jimmy2012-12-09d01t07.flac:c643b677ed03ed766a36b3672073f2d7
jimmy2012-12-09d01t08.flac:47ab16e700d2abf8ad083e64d28b73dd
jimmy2012-12-09d01t09.flac:c2c279444639e4eecee0a00a61509ed1
jimmy2012-12-09d01t10.flac:aa76f7c15df4ba39085b004d0c7ef851
jimmy2012-12-09d01t11.flac:21177a000f4c13e1750f5bd582c05698
jimmy2012-12-09d01t12.flac:55cde995288b638bceae62c351279335

Shntool

length expanded size cdr WAVE problems fmt ratio filename
0:38.51 6823196 B --- -- ---xx flac 0.3682 jimmy2012-12-09d01t01.flac
3:01.00 31928444 B --- -- ---xx flac 0.5333 jimmy2012-12-09d01t02.flac
3:21.18 35498780 B --- -- ---xx flac 0.5227 jimmy2012-12-09d01t03.flac
4:37.08 48881660 B --- -- ---xx flac 0.4832 jimmy2012-12-09d01t04.flac
4:59.53 52868300 B --- -- ---xx flac 0.4994 jimmy2012-12-09d01t05.flac
3:27.57 36648908 B --- -- ---xx flac 0.5159 jimmy2012-12-09d01t06.flac
3:11.25 33751244 B --- -- ---xx flac 0.4131 jimmy2012-12-09d01t07.flac
4:42.45 49850684 B --- -- ---xx flac 0.5247 jimmy2012-12-09d01t08.flac
4:01.64 42662972 B --- -- ---xx flac 0.4247 jimmy2012-12-09d01t09.flac
4:01.28 42578300 B --- -- ---xx flac 0.5165 jimmy2012-12-09d01t10.flac
4:12.10 44476364 B --- -- ---xx flac 0.4974 jimmy2012-12-09d01t11.flac
7:03.21 74666636 B --- -- ---xx flac 0.4133 jimmy2012-12-09d01t12.flac
47:18.05 500635488 B 0.4798 (12 files)













Checksumsjimmy2012-12-09d01t01.flac:54fa197f25ed198312811e4efcfe4f87
jimmy2012-12-09d01t02.flac:f1217f5f7c56802d50b02cebb785175b
jimmy2012-12-09d01t03.flac:7815ec3851ba3fe3014d81555eadff4c
jimmy2012-12-09d01t04.flac:75b9c13926495959434a771d3f89d95c
jimmy2012-12-09d01t05.flac:0b4bffd68229d32e7f47f10b4045ab1c
jimmy2012-12-09d01t06.flac:a21fb73c017f3ef6ec493b1b71f1b244
jimmy2012-12-09d01t07.flac:c643b677ed03ed766a36b3672073f2d7
jimmy2012-12-09d01t08.flac:47ab16e700d2abf8ad083e64d28b73dd
jimmy2012-12-09d01t09.flac:c2c279444639e4eecee0a00a61509ed1
jimmy2012-12-09d01t10.flac:aa76f7c15df4ba39085b004d0c7ef851
jimmy2012-12-09d01t11.flac:21177a000f4c13e1750f5bd582c05698
jimmy2012-12-09d01t12.flac:55cde995288b638bceae62c351279335
TypeOther
Last seederLast activity 24:00 ago
Size229.08 MB (240211985 Bytes)
Added2012-12-10 23:18:35
Views0
Hits343
Snatched151 times
Upped byzmanatl
Num files
[See full list]
13 files
Seeders
[Hide list]
1 Seeder(s)
ip:portclient
version
ul
bytes
dl
bytes
ratiocompleteul
rate
dl
rate
time
connected
time
left
idle
107.3.161.xxx:51413 0 B 0 B N/A 100.00%
N/A N/A 1:24:03 N/A 24:00
0 of 1 firewalled (0%) 100.00%
N/AN/A
Leechers
[Hide list]
0 Leecher(s)

Add a comment

roots1965 2012-12-11 01:59:21
Thanks for sharing Jimmy Cliff Tour 2012
Digam11 2012-12-11 08:52:39
Thanks
phil_er_up 2012-12-11 10:26:54
Thanks Z. Your time and effort is appreciated.
Luckymudster 2012-12-11 11:16:08
Sweet. Thank you so much for taping and sharing this with us!!

Add a comment


http://etree.org : http://db.etree.org : http://forums.etree.org : http://wiki.etree.org : Legal : RSS Feed

Contents designed & maintained by the etree.org volunteers
1998-2014, etree.org, except where noted. All Rights Reserved.
Read our terms of service and privacy guidelines