bt.etree.org
etree.org Community Bittorrent Tracker
ArtistGrateful Dead
Showgd82-04-15.106527.fob-nak300.friend-andrewf.flac16
Report this as
non-Trade-Friendly
Email us
Torrentgd82-04-15.106527.fob-nak300.friend-andrewf.flac16.torrent (click to download)
Downloads asgd82-04-15.106527.fob-nak300.friend-andrewf.flac16
Info hashaa08159672894c44f19bb474fec4213b0dec737b
db linkhttp://db.etree.org/shn/106527 | Show | Source
DescriptionGRATEFUL DEAD
Civic Center
Providence RI
04-15-1982

file-set: 16bit/44.1kHz

01 Alabama Getaway >
02 Greatest Story Ever Told
03 crowd & tuning
04 Candyman
05 C.C. Rider
06 Ramble on Rose
07 Beat it on Down the Line
08 Peggy-O
09 Cassidy
10 crowd & tuning
11 Althea
12 Looks Like Rain >
13 Deal

01 crowd & tuning
02 Scarlet Begonias >
03 Fire on the Mountain
04 crowd & tuning
05 Estimated Prophet >
06 He's Gone >
07 Jam >
08 Drums >
09 Space >
10 Truckin' >
11 Morning Dew >
12 Good Lovin'

Encore:
13 Don't Ease Me In

AUD: 3x Nakamichi CM300/CP1's > Nakamichi 550 > Maxell XLII-S.
Mics on stand,
FOB floor, right center. Taped by Tim Friend.

Transfer: MAC > Nakamichi CR5A > Edirol FA-66 > Wavelab 2448 >
CD-Wave > R8Brain >
TLH > FLAC 1644 Tagged. Transfer by Andrew F.
03/2010

Notes: Some intrusive crowd noise in a few spots. First notes
of BIODTL slightly clipped. Patches from ID-95435; He's Gone
10:41 > 11:13, and most of Drums 0:26 > 7:46.

CDRs: D1 s1t01 > s1t13, D2 s2t01 > s2t03, D3 s2t04 > s2t13.

length expanded size cdr WAVE problems fmt ratio filename
5:24.14 57186572 B --- -- ---xx flac 0.5884 gd1982-04-15s1t01.flac
4:08.14 43780172 B --- -- ---xx flac 0.5819 gd1982-04-15s1t02.flae
2:07.32 22478108 B --- -- ---xx flac 0.4645 gd1982-04-15s1t03.flac
6:24.67 67895228 B --- -- ---xx flac 0.5608 gd1982-04-15s1t04.flac
8:35.65 90998924 B --- -- ---xx flac 0.5624 gd1982-04-15s1t05.flac
7:33.50 80026844 B --- -- ---xx flac 0.5655 gd1982-04-15s1t06.flac
3:49.18 40437980 B --- -- ---xx flac 0.5774 gd1982-04-15s1t07.flac
7:30.19 79424732 B --- -- ---xx flac 0.5140 gd1982-04-15s1t08.flac
5:37.13 59477420 B --- -- ---xx flac 0.5486 gd1982-04-15s1t09.flac
1:22.12 14493068 B --- -- ---xx flac 0.4570 gd1982-04-15s1t10.flac
7:44.58 81986060 B --- -- ---xx flac 0.5425 gd1982-04-15s1t11.flac
8:10.67 86593628 B --- -- ---xx flac 0.5350 gd1982-04-15s1t12.flac
6:50.57 72458108 B --- -- ---xx flac 0.5628 gd1982-04-15s1t13.flac
0:43.08 7604060 B --- -- ---xx flac 0.4801 gd1982-04-15s2t01.flac
10:18.08 109034060 B --- -- ---xx flac 0.5917 gd1982-04-15s2t02.flac
11:02.33 116854460 B --- -- ---xx flac 0.5805 gd1982-04-15s2t03.flac
1:01.61 10903916 B --- -- ---xx flac 0.5080 gd1982-04-15s2t04.flac
10:49.29 114551852 B --- -- ---xx flac 0.5736 gd1982-04-15s2t05.flac
11:18.20 119646284 B --- -- ---xx flac 0.5565 gd1982-04-15s2t06.flac
4:41.62 49714268 B --- -- ---xx flac 0.5389 gd1982-04-15s2t07.flac
8:06.71 85897436 B --- -- ---xx flac 0.4782 gd1982-04-15s2t08.flac
9:46.02 103375148 B --- -- ---xx flac 0.4682 gd1982-04-15s2t09.flac
7:48.07 82571708 B --- -- ---xx flac 0.5534 gd1982-04-15s2t10.flac
9:58.23 105541340 B --- -- ---xx flac 0.5178 gd1982-04-15s2t11.flac
8:54.16 94235276 B --- -- ---xx flac 0.5629 gd1982-04-15s2t12.flac
3:58.18 42025580 B --- -- ---xx flac 0.5454 gd1982-04-15s2t13.flac
173:46.19 1839192232 B 0.5467 (26 files)
No errors occured.
Checksumsgd1982-04-15s1t01.flac:b968b3607a040cc1a8d8214b1e41b92e
gd1982-04-15s1t02.flac:00d5a8f0b8d28a4e94bcdb72a9beeecd
gd1982-04-15s1t03.flac:0e4aabd7845011b3f2374a9069bee91a
gd1982-04-15s1t04.flac:ecbf698b29818c3eca05516134a7f8f0
gd1982-04-15s1t05.flac:4ebb62de6f3026cccbe94566af8312d7
gd1982-04-15s1t06.flac:ea645d568f9229fcc1c32808abacd4d5
gd1982-04-15s1t07.flac:cceffb37146d2111242a4e5966e81145
gd1982-04-15s1t08.flac:340127f71a17cc9b7c25f0c9c8a49c88
gd1982-04-15s1t09.flac:86bf8336c8763d4dd7f5ea964260cea6
gd1982-04-15s1t10.flac:c537f7a1635b5c525afb4d1d99d536ef
gd1982-04-15s1t11.flac:9aa72e9d6c0b0019270fd9b860d1f2fe
gd1982-04-15s1t12.flac:27886687f33dfb1810045225256cbe42
gd1982-04-15s1t13.flac:262695dd43605599e15e3308c13acfeb
gd1982-04-15s2t01.flac:c3053bad0df029d0e0705abfc5ce0191
gd1982-04-15s2t02.flac:7fa97e252f93bcb111e5228c8446dfc8
gd1982-04-15s2t03.flac:59140788db67db120bd76d06888a0ae3
gd1982-04-15s2t04.flac:8e101d7f464d1d41b16c619f06ae1269
gd1982-04-15s2t05.flac:61b4151bacff466763b2807813b9270d
gd1982-04-15s2t06.flac:4b7d12eb630fb90c300f14d86fb40a72
gd1982-04-15s2t07.flac:d692fde29e3d92625af905ce206c1d4b
gd1982-04-15s2t08.flac:2c8ed1b780ecb2f081f5c0f585e0e0bf
gd1982-04-15s2t09.flac:25753d9d68140d3e246bce42c3d2bc04
gd1982-04-15s2t10.flac:0add9512d6137c4902ef9424298e4988
gd1982-04-15s2t11.flac:3dbc34b3de86c0e84906342e712f1902
gd1982-04-15s2t12.flac:8cafc5e5d908766f5cf9de5180fdc9c4
gd1982-04-15s2t13.flac:efd2b903cbc17202f45992c3ab3c714e
TypeGrateful Dead
Last seederLast activity 60 days, 07:59:53 ago
Size958.92 MB (1005500549 Bytes)
Added2012-12-11 07:11:58
Views0
Hits335
Snatched180 times
Upped bySpiralLightofVenus
Num files29 files
File List
[Hide list]
filenamesizemd5
gd1982-04-15.106527.ffp1.4 kBN/A
gd1982-04-15.106527.md51.4 kBN/A
gd1982-04-15.106527.txt3.5 kBN/A
gd1982-04-15s1t01.flac32.09 MBN/A
gd1982-04-15s1t02.flac24.30 MBN/A
gd1982-04-15s1t03.flac9.96 MBN/A
gd1982-04-15s1t04.flac36.31 MBN/A
gd1982-04-15s1t05.flac48.81 MBN/A
gd1982-04-15s1t06.flac43.16 MBN/A
gd1982-04-15s1t07.flac22.27 MBN/A
gd1982-04-15s1t08.flac38.93 MBN/A
gd1982-04-15s1t09.flac31.12 MBN/A
gd1982-04-15s1t10.flac6.32 MBN/A
gd1982-04-15s1t11.flac42.42 MBN/A
gd1982-04-15s1t12.flac44.18 MBN/A
gd1982-04-15s1t13.flac38.89 MBN/A
gd1982-04-15s2t01.flac3.48 MBN/A
gd1982-04-15s2t02.flac61.53 MBN/A
gd1982-04-15s2t03.flac64.69 MBN/A
gd1982-04-15s2t04.flac5.28 MBN/A
gd1982-04-15s2t05.flac62.66 MBN/A
gd1982-04-15s2t06.flac63.50 MBN/A
gd1982-04-15s2t07.flac25.55 MBN/A
gd1982-04-15s2t08.flac39.17 MBN/A
gd1982-04-15s2t09.flac46.16 MBN/A
gd1982-04-15s2t10.flac43.58 MBN/A
gd1982-04-15s2t11.flac52.12 MBN/A
gd1982-04-15s2t12.flac50.59 MBN/A
gd1982-04-15s2t13.flac21.86 MBN/A
Peers
[See full list]
0 seeders, 1 leecher = 1 peer total

No comments yet

Add a comment


http://etree.org : http://db.etree.org : http://forums.etree.org : http://wiki.etree.org : Legal : RSS Feed

Contents designed & maintained by the etree.org volunteers
1998-2014, etree.org, except where noted. All Rights Reserved.
Read our terms of service and privacy guidelines