bt.etree.org
etree.org Community Bittorrent Tracker
ArtistGrateful Dead
Showgd82-04-15.095434.fob-set2-ecm220t.kirschner-miller.sbeok.t-flac16
Report this as
non-Trade-Friendly
Email us
Torrentgd82-04-15.095434.fob-set2-ecm220t.kirschner-miller.sbeok.t-flac16.torrent (click to download)
Downloads asgd82-04-15.095434.fob-set2-ecm220t.kirschner-miller.sbeok.t-flac16
Info hash4372e4dcf6219c2e509d2761937f2ea70e9ed845
db linkhttp://db.etree.org/shn/095434 | Show | Source
DescriptionThis is a tagged version of shnid: 95344

Grateful Dead
April 15, 1982
Civic Center
Providence, RI

**SET 2 ONLY**

Recording Info:
(FOB/13th Row) Sony ECM-220T -> Cassette Master
(Sony TC-D5M/Sony FeCr90/Dolby B)

Transfer Info:
Cassette Master (Nakamichi DR-1/Dolby B) ->
Sound Devices 744T (24bit/96k) ->Adobe Audition v1.5 -> Samplitude
Professional v10.1 -> FLAC/16
(2 Discs Audio / 1 Disc FLAC)

All Transfers and Mastering By Charlie Miller
charliemiller87@earthlink.net
October 24, 2008

Patch Info:
(FOB) Nakamichi 700 -> Cassette Master -> Dat -> CD (shnid=11930) supplies:
He's Gone (12:26 - 12:35)
Good Lovin' (7:28 - 7:53)

Notes:
-- Disc change is seamless
-- Thanks to Michael Kirschner for lending me his masters
-- Thanks to Joe B. Jones for his help with the pitch correction
-- Set 1 missing due to taper getting busted by security for taping
___________________________________________________________________________

--Set 2--
201-d1t01 - Scarlet Begonias ->
202-d1t02 - Fire on the Mountain
203-d1t03 - Estimated Prophet ->
204-d1t04 - He's Gone ->
205-d1t05 - Drums ->
206-d2t01 - Space ->
207-d2t02 - Truckin' ->
208-d2t03 - Morning Dew ->
209-d2t04 - Good Lovin'

--Encore--
210-d2t05 - Don't Ease Me In
___________________________________________________________________________

Tagging notes:
Show information is embedded within the header of each flac file.
It will display on any player capable of directly playing flac files.
If converted to wav during processing, all tags will be stripped,
however audio data will remain unaffected.
If you must transcode to a lossy format, do so directly Flac > Lossy.
Use ffp to validate audio integrity.
Md5 values will change if tagging is altered.
B. Proctor 2-06-11
___________________________________________________________________________

SHNTOOL OUTPUT:
length expanded size cdr WAVE problems filename
11:19.08 119794460 --- -- ----- gd82-04-15d1t01.wav
11:34.02 122426348 --- -- ----- gd82-04-15d1t02.wav
10:48.64 114457772 --- -- ----- gd82-04-15d1t03.wav
15:47.18 167093180 --- -- ----- gd82-04-15d1t04.wav
8:10.11 86461916 --- -- ----- gd82-04-15d1t05.wav
9:53.33 104682860 --- -- ----- gd82-04-15d2t01.wav
7:31.28 79622300 --- -- ----- gd82-04-15d2t02.wav
9:55.15 104993324 --- -- ----- gd82-04-15d2t03.wav
10:37.24 112423292 --- -- ----- gd82-04-15d2t04.wav
3:28.41 36787676 --- -- ----- gd82-04-15d2t05.wav
99:05.19 1048743128 B (totals for 10 files)
Checksumsgd82-04-15d1t01.flac:04ff16d8cd9017b2edd7fbdb042a1b72
gd82-04-15d1t02.flac:e6d7721ceb2fe5c4f66d39c9485cbcad
gd82-04-15d1t03.flac:0e4d115c09a93a0f5f42a3bbd2797b99
gd82-04-15d1t04.flac:bbf6738dbae70c65414d518e433c389a
gd82-04-15d1t05.flac:41e8a288f09c5f4ee79456ddb7153af1
gd82-04-15d2t01.flac:9459a935df54afd5b588473c248645bd
gd82-04-15d2t02.flac:8b5efa2f6291ae40419f5a5c32e65a4a
gd82-04-15d2t03.flac:af1b3aa28d296b1bf5c68ea774ebb5e1
gd82-04-15d2t04.flac:1b3ba7cb299ecf22fa8b5f994bb88c38
gd82-04-15d2t05.flac:44f30611d6c24645161ab38e7169b3fb
TypeGrateful Dead
Last seederLast activity 20:24:41 ago
Size609.40 MB (639000171 Bytes)
Added2012-12-11 07:12:54
Views0
Hits285
Snatched123 times
Upped bySpiralLightofVenus
Num files
[See full list]
13 files
Peers
[See full list]
1 seeder, 0 leechers = 1 peer total

No comments yet

Add a comment


http://etree.org : http://db.etree.org : http://forums.etree.org : http://wiki.etree.org : Legal : RSS Feed

Contents designed & maintained by the etree.org volunteers
1998-2014, etree.org, except where noted. All Rights Reserved.
Read our terms of service and privacy guidelines