bt.etree.org
etree.org Community Bittorrent Tracker
ArtistGrateful Dead
Showgd77-10-01.sbd.miller.123090.sbeok.flac16
Report this as
non-Trade-Friendly
Email us
Torrentgd77-10-01.sbd.miller.123090.sbeok.flac16.torrent (click to download)
Downloads asgd77-10-01.sbd.miller.123090.sbeok.flac16
Info hash416df483cc46b58b00af7de784bd1c2968a67e9a
db linkhttp://db.etree.org/shn/123090 | Show | Source
DescriptionGrateful Dead - October 1, 1977
Paramount Theatre - Portland, OR

Recording Info:
SBD -> Master Reel -> PCM -> Dat

Transfer Info:
Dat (Tascam DA-20) -> Tascam SS-R05 -> Samplitude Professional v11.2.1 -> FLAC
(2 Discs Audio / 1 DVD FLAC)

All Transfers and Mastering By Charlie Miller
charliemiller87@earthlink.net
December 11, 2012

Notes:
-- Disc change is seamless
-- Most of Promised Land is missing
-- Front half of They Love Each Other is missing
-- Most of the static in Estimated Prophet has been cleaned up
-- Tape flip in Drums

Set 1:
d1t01 - Promised Land
d1t02 - They Love Each Other
d1t03 - Mexicali Blues
d1t04 - Dire Wolf
d1t05 - Cassidy
d1t06 - Deal
d1t07 - Passenger
d1t08 - Tennessee Jed
d1t09 - New Minglewood Blues
d1t10 - Peggy-O
d1t11 - The Music Never Stopped

Set 2:
d1t12 - Tuning
d1t13 - Bertha ->
d1t14 - Good Lovin'
d2t01 - It Must Have Been The Roses
d2t02 - Estimated Prophet ->
d2t03 - Eyes Of The World ->
d2t04 - Dancing In The Street ->
d2t05 - Drums ->
d2t06 - Not Fade Away ->
d2t07 - Black Peter ->
d2t08 - Around And Around


SHNTOOL OUTPUT:
length expanded size cdr WAVE problems fmt ratio filename
1:05.49 11581292 B --- -- ---xx flac 0.5546 gd77-10-01d1t01.flac
4:56.44 52317932 B --- -- ---xx flac 0.4622 gd77-10-01d1t02.flac
4:32.09 48002012 B --- -- ---xx flac 0.5095 gd77-10-01d1t03.flac
4:19.41 45784076 B --- -- ---xx flac 0.5164 gd77-10-01d1t04.flac
5:16.05 55754204 B --- -- ---xx flac 0.5380 gd77-10-01d1t05.flac
7:45.10 82049564 B --- -- ---xx flac 0.4900 gd77-10-01d1t06.flac
4:03.61 43008716 B --- -- ---xx flac 0.5675 gd77-10-01d1t07.flac
8:31.06 90154556 B --- -- ---xx flac 0.5437 gd77-10-01d1t08.flac
6:08.38 65004620 B --- -- ---xx flac 0.5322 gd77-10-01d1t09.flac
9:33.71 101244236 B --- -- ---xx flac 0.4901 gd77-10-01d1t10.flac
8:01.30 84919004 B --- -- ---xx flac 0.5844 gd77-10-01d1t11.flac
1:44.66 18500876 B --- -- ---xx flac 0.3216 gd77-10-01d1t12.flac
6:08.19 64959932 B --- -- ---xx flac 0.6007 gd77-10-01d1t13.flac
7:23.52 78267548 B --- -- ---xx flac 0.5384 gd77-10-01d1t14.flac
9:48.63 103871420 B --- -- ---xx flac 0.4682 gd77-10-01d2t01.flac
9:44.74 103191692 B --- -- ---xx flac 0.5668 gd77-10-01d2t02.flac
11:58.35 126737564 B --- -- ---xx flac 0.5619 gd77-10-01d2t03.flac
10:40.25 112954844 B --- -- ---xx flac 0.5807 gd77-10-01d2t04.flac
4:52.04 51518252 B --- -- ---xx flac 0.5305 gd77-10-01d2t05.flac
10:43.52 113547548 B --- -- ---xx flac 0.5774 gd77-10-01d2t06.flac
8:59.68 95239580 B --- -- ---xx flac 0.4810 gd77-10-01d2t07.flac
8:21.22 88428188 B --- -- ---xx flac 0.5835 gd77-10-01d2t08.flac
154:40.19 1637037656 B 0.5360 (22 files)
Checksumsf7d1821ab4ef15a3acd4ce65b1c1cf7c *gd77-10-01d1t01.flac
ec60d7877b23877d96ef224be7f63752 *gd77-10-01d1t02.flac
805f869bf64f4dc6c982cd61b3f03004 *gd77-10-01d1t03.flac
4a5f3425e55ecd47e023723853f54ec3 *gd77-10-01d1t04.flac
39f6c070dd377b51a19621aace5b757d *gd77-10-01d1t05.flac
9fc34acf0a54156e2b2dc5e3c2199c20 *gd77-10-01d1t06.flac
cca7fdf70192472c40dc91d0626da8a6 *gd77-10-01d1t07.flac
ba70cc3b973a25bcb2aafdea90f55b51 *gd77-10-01d1t08.flac
cd21fb1b9f37c94a74f3d6c160c0f07e *gd77-10-01d1t09.flac
80171b6be6c83172b41a053c52d5a87e *gd77-10-01d1t10.flac
3c503d1bfff16802a9b48bd63d05b0b9 *gd77-10-01d1t11.flac
45680d1833db8190ceb1f17122146cea *gd77-10-01d1t12.flac
76d2d33854f71f478cba8a7467cc78c2 *gd77-10-01d1t13.flac
470bb89dd88d5fff4a2ebb32e9328ebc *gd77-10-01d1t14.flac
e21ec4299b9e86df477820e05dd6a887 *gd77-10-01d2t01.flac
8fa755c9a2d60acb31cf49a1d5b019fd *gd77-10-01d2t02.flac
4ed67898dea32dff4b356e7b89cf4864 *gd77-10-01d2t03.flac
468d408be2a752a663ab45a028c898a0 *gd77-10-01d2t04.flac
10f6f760c46df54cb7db15afb3b4e797 *gd77-10-01d2t05.flac
2526d4006fcdb0f24ed8812ba887e751 *gd77-10-01d2t06.flac
168b7cc969a7126a0d4733f620b7a9a6 *gd77-10-01d2t07.flac
2d1420927ac6ae16977c8d4d7d40889b *gd77-10-01d2t08.flac
TypeGrateful Dead
Last seederLast activity 6:01 ago
Size836.87 MB (877518110 Bytes)
Added2012-12-11 10:25:45
Views0
Hits1327
Snatched970 times
Upped byWHARFRAT73
Num files
[See full list]
25 files
Peers
[See full list]
7 seeders, 0 leechers = 7 peers total

Add a comment

SpainKiller 2012-12-11 11:13:58
oh snap - thanks!
thewaymouth 2012-12-11 16:06:40
Oh thanks Mr. Charlie & The Rat. This is a great one.
geewiz010 2012-12-11 17:44:23
Thanks for all these new sources!
jerome70 2012-12-11 19:56:44
thank you mr. miller! the night of the return of one of my personal top favorites,"Black peter"...the next night (october the 2nd) saw the return of "dupree's diamond blues". cheers! nice choice! lovin' these groovy new transfers!
opener17 2012-12-11 20:32:07
ty
thecat18 2012-12-11 20:58:22
Thanks for sharing.
Pisces 2012-12-11 22:23:48
Thanks!
rovalle 2012-12-12 07:46:23
Mas groovy que la chingada...thankee
kayatosh 2012-12-12 10:52:14
thank you! sounds good w/ extra kick drum umph.

really dug the eyes>dancin. groovalicious.
remigrateful 2012-12-13 17:25:34
first show, was 16. thank you!!!!!!
TPelts 2013-02-04 15:39:45
Have not listened to this one for a long time Dont know why. Thank you.
thewaymouth 2014-01-24 00:04:36
Please note: NFA @ 10:16 there is a skip -- nothing is missing, but it takes away from a subtle, beautiful moment in the music -- this defect is on the patched Miller version as well. This is online at IA so it is not just my download.

However, this flaw is not on any of the other versions.

I love Mr. Charlie's work, but because of the above hitch, for this show I recommend the Cantor/Green Mountain Brothers version.

(I will email/mention it to Charlie in case he ever wants to revisit it.)

Add a comment


http://etree.org : http://db.etree.org : http://forums.etree.org : http://wiki.etree.org : Legal : RSS Feed

Contents designed & maintained by the etree.org volunteers
1998-2014, etree.org, except where noted. All Rights Reserved.
Read our terms of service and privacy guidelines