bt.etree.org
etree.org Community Bittorrent Tracker
ArtistOther
ShowJason Isbell And The 400 Unit The Royale Boston, Massachusetts 12/11/2012 (Schoeps CCM4V'S FOB)
Report this as
non-Trade-Friendly
Email us
Torrentisbell2012-12-11.flac16.torrent (click to download)
Downloads asisbell2012-12-11.flac16
Info hash1e8ad0b3ab50abbc263fd4bde773fcabe64f2e69
DescriptionJason Isbell And The 400 Unit
The Royale
Boston, Massachusetts
12/11/2012

Source: Schoeps CCM4V'S(din)>Lunatec V2>Benchmark AD2K>
Sound Devices 722 (24/48)
FOB/DFC/KFC/ZFC/AARP Clamped To The Rail On The Front Of The Balcony
DSP: Sound Devices 722>Sound Forge 9.0>CD Wave>flac(16)
Recorded By: Z-Man
Seeded By: Z-Man

Disc I

01 Greeting
02 Go It Alone >
03 Decoration Day
04 Tour Of Duty >
05 Goddamn Lonely Love >
06 Try
07 Dress Blues
08 Heart On A String
09 Hey Pockey Way

Disc II

01 In A Razor Town >
02 Alabama Pines
03 Never Gonna Change
04 Jason Banter About The Song outfit
05 Outfit >
06 The Magician >
07 Codeine
Encore:
08 *Danko/Manuel
09 Like A Hurricane

* Band Members Come Out One AT A Time And Start To Play

Flac Fingerprint

jasonisbell2012-12-11d01t01.flac:63b3d4f761eb0384d9f4b555515cd2b0
jasonisbell2012-12-11d01t02.flac:17193c676c40be8fdbcddb428d5d5c48
jasonisbell2012-12-11d01t03.flac:3158eb00fca76c72d15d93385646a0e3
jasonisbell2012-12-11d01t04.flac:6fafc235ae7e2e10e4796533008c0aba
jasonisbell2012-12-11d01t05.flac:9161222474ca88de89c1268911859cc3
jasonisbell2012-12-11d01t06.flac:3bfe14d28b699ec5072157f11fc33c96
jasonisbell2012-12-11d01t07.flac:e5d275e6e47a5ff20d459f13bba7c138
jasonisbell2012-12-11d01t08.flac:b5c21807137d00305b13568ffb1e5ca1
jasonisbell2012-12-11d01t09.flac:e704ead6c69c14ba0a68e976779137fa
jasonisbell2012-12-11d02t01.flac:ec93abbd41e45d8e1522a17640209a3e
jasonisbell2012-12-11d02t02.flac:244a470975508ed18bc578a98ef7e8f4
jasonisbell2012-12-11d02t03.flac:d36fec29bee1e76204343f8a403943e7
jasonisbell2012-12-11d02t04.flac:14999b3ec28945c43c8fc277c094ee6b
jasonisbell2012-12-11d02t05.flac:50b64273abf062191f8ceb2fb1d934c3
jasonisbell2012-12-11d02t06.flac:904800aef9ab84f6be804d6e33799070
jasonisbell2012-12-11d02t07.flac:9f8a6bf5b94ac26945e3828a3b493a54
jasonisbell2012-12-11d02t08.flac:da51d882173f5715298786d660903604
jasonisbell2012-12-11d02t09.flac:5a0f3830e45397b4828b47117db5ac10

Shntool

length expanded size cdr WAVE problems fmt ratio filename
0:21.59 3843212 B --- -- ---xx flac 0.4037 jasonisbell2012-12-11d01t01.flac
4:22.52 46339148 B --- -- ---xx flac 0.5723 jasonisbell2012-12-11d01t02.flac
6:49.73 72319340 B --- -- ---xx flac 0.5215 jasonisbell2012-12-11d01t03.flac
3:41.06 38998556 B --- -- ---xx flac 0.4801 jasonisbell2012-12-11d01t04.flac
6:38.35 70289564 B --- -- ---xx flac 0.4755 jasonisbell2012-12-11d01t05.flac
7:54.67 83771228 B --- -- ---xx flac 0.5625 jasonisbell2012-12-11d01t06.flac
6:20.29 67100252 B --- -- ---xx flac 0.4444 jasonisbell2012-12-11d01t07.flac
5:10.00 54684044 B --- -- ---xx flac 0.5075 jasonisbell2012-12-11d01t08.flac
6:18.17 66719228 B --- -- ---xx flac 0.5236 jasonisbell2012-12-11d01t09.flac
3:51.51 40868396 B --- -- ---xx flac 0.3546 jasonisbell2012-12-11d02t01.flac
4:53.27 51748748 B --- -- ---xx flac 0.4622 jasonisbell2012-12-11d02t02.flac
10:40.10 112919564 B --- -- ---xx flac 0.5571 jasonisbell2012-12-11d02t03.flac
3:07.52 33109148 B --- -- ---xx flac 0.3362 jasonisbell2012-12-11d02t04.flac
5:02.43 53373980 B --- -- ---xx flac 0.5174 jasonisbell2012-12-11d02t05.flac
4:51.13 51363020 B --- -- ---xx flac 0.4906 jasonisbell2012-12-11d02t06.flac
7:09.06 75689756 B --- -- ---xx flac 0.5100 jasonisbell2012-12-11d02t07.flac
9:25.68 99825980 B --- -- ---xx flac 0.4390 jasonisbell2012-12-11d02t08.flac
6:16.62 66472268 B --- -- ---xx flac 0.5524 jasonisbell2012-12-11d02t09.flac
102:55.70 1089435432 B 0.4975 (18 files)















Checksumsjasonisbell2012-12-11d01t01.flac:63b3d4f761eb0384d9f4b555515cd2b0
jasonisbell2012-12-11d01t02.flac:17193c676c40be8fdbcddb428d5d5c48
jasonisbell2012-12-11d01t03.flac:3158eb00fca76c72d15d93385646a0e3
jasonisbell2012-12-11d01t04.flac:6fafc235ae7e2e10e4796533008c0aba
jasonisbell2012-12-11d01t05.flac:9161222474ca88de89c1268911859cc3
jasonisbell2012-12-11d01t06.flac:3bfe14d28b699ec5072157f11fc33c96
jasonisbell2012-12-11d01t07.flac:e5d275e6e47a5ff20d459f13bba7c138
jasonisbell2012-12-11d01t08.flac:b5c21807137d00305b13568ffb1e5ca1
jasonisbell2012-12-11d01t09.flac:e704ead6c69c14ba0a68e976779137fa
jasonisbell2012-12-11d02t01.flac:ec93abbd41e45d8e1522a17640209a3e
jasonisbell2012-12-11d02t02.flac:244a470975508ed18bc578a98ef7e8f4
jasonisbell2012-12-11d02t03.flac:d36fec29bee1e76204343f8a403943e7
jasonisbell2012-12-11d02t04.flac:14999b3ec28945c43c8fc277c094ee6b
jasonisbell2012-12-11d02t05.flac:50b64273abf062191f8ceb2fb1d934c3
jasonisbell2012-12-11d02t06.flac:904800aef9ab84f6be804d6e33799070
jasonisbell2012-12-11d02t07.flac:9f8a6bf5b94ac26945e3828a3b493a54
jasonisbell2012-12-11d02t08.flac:da51d882173f5715298786d660903604
jasonisbell2012-12-11d02t09.flac:5a0f3830e45397b4828b47117db5ac10
TypeOther
Last seederLast activity 17:24:23 ago
Size516.86 MB (541971870 Bytes)
Added2012-12-12 01:23:06
Views0
Hits280
Snatched134 times
Upped byzmanatl
Num files19 files
File List
[Hide list]
filenamesizemd5
jasonisbell2012-12-11d02t03.flac59.99 MBN/A
jasonisbell2012-12-11d01t06.flac44.94 MBN/A
jasonisbell2012-12-11d02t08.flac41.79 MBN/A
jasonisbell2012-12-11d02t07.flac36.81 MBN/A
jasonisbell2012-12-11d01t03.flac35.96 MBN/A
jasonisbell2012-12-11d02t09.flac35.02 MBN/A
jasonisbell2012-12-11d01t09.flac33.32 MBN/A
jasonisbell2012-12-11d01t05.flac31.87 MBN/A
jasonisbell2012-12-11d01t07.flac28.44 MBN/A
jasonisbell2012-12-11d01t08.flac26.47 MBN/A
jasonisbell2012-12-11d02t05.flac26.34 MBN/A
jasonisbell2012-12-11d01t02.flac25.29 MBN/A
jasonisbell2012-12-11d02t06.flac24.03 MBN/A
jasonisbell2012-12-11d02t02.flac22.81 MBN/A
jasonisbell2012-12-11d01t04.flac17.86 MBN/A
jasonisbell2012-12-11d02t01.flac13.82 MBN/A
jasonisbell2012-12-11d02t04.flac10.61 MBN/A
jasonisbell2012-12-11d01t01.flac1.48 MBN/A
isbell2012-12-11.textfile.txt3.9 kBN/A
Peers
[See full list]
1 seeder, 0 leechers = 1 peer total

Add a comment

zmanatl 2012-12-12 01:42:54
I'll catch up tomorrow. I have to be up in 3 hours for a long and early day of work. Here is 1 video to hold you over!

Like A Hurricane:
http://youtu.be/hhy-z6XZE2o

dorrcoq 2012-12-12 01:46:09
Back to open taping? Or a special concession for he zman?
Hutchy 2012-12-12 01:52:56
Thank you very much zman .

3 h is not much.
Only "rust never sleeps"
brofan 2012-12-12 03:27:10
Thank you Z-Man!

As usual your taste in taping subjects is impeccable!
bvaz 2012-12-12 05:21:16
thanks zman. glad you were able to make the show.
bigdaddybflo 2012-12-12 08:39:31
What was the late nite snack ?????
hucklive 2012-12-12 12:35:26
Many Thanks!
jjw103 2012-12-12 17:31:40
nice to have a zman recording again! thanks!
vatec80 2012-12-12 18:28:18
Thanks for recording and sharing-sounds great....
VonFace 2012-12-12 20:44:00
Great recording!
If it's a Z-MAN.....you are there.
mpm_gumby 2012-12-12 20:58:19
I got shut down last time he was at the Turf Club in St. Paul. I was so pissed I vowed I would never go see him again... I've rejected going to see any Jorma related music since he TURNED away from allowing taping...
jason_nc 2012-12-14 14:10:53
thanks Zman! Glad Jason's live album is finally out, so hopefully there will be open taping again.
heckler 2012-12-14 21:46:22
This band is on David Letterman tonight (Fri., Dec. 14th)!

Add a comment


http://etree.org : http://db.etree.org : http://forums.etree.org : http://wiki.etree.org : Legal : RSS Feed

Contents designed & maintained by the etree.org volunteers
1998-2014, etree.org, except where noted. All Rights Reserved.
Read our terms of service and privacy guidelines