bt.etree.org
etree.org Community Bittorrent Tracker
ArtistOther
ShowCommunist Daughter The Royale Boston, Massachusetts 12/11/2012 (Schoeps CCM4V'S FOB)
Report this as
non-Trade-Friendly
Email us
Torrentcommunist2012-12-11.flac16.torrent (click to download)
Downloads ascommunist2012-12-11.flac16
Info hash606d39cc0c62443f6cc1a56ce41379ac90e4990d
DescriptionCommunist Daughter
The Royale
Boston, Massachusetts
12/11/2012

Source: Schoeps CCM4V'S(din)>Lunatec V2>Benchmark AD2K>
Sound Devices 722 (24/48)
FOB/DFC/KFC/ZFC/AARP Clamped To The Rail On The Front Of The Balcony
DSP: Sound Devices 722>Sound Forge 9.0>CD Wave>flac(16)
Recorded By: Z-Man
Seeded By: Z-Man

Disc I

01 ? >
02 ? >
03 ?
04 ?
05 ?
06 ?
07 ? >
08 ? >
09 ? >
10 ?

Flac Fingerprint

communist2012-12-11d01t01.flac:bd7c1c928f65047730e846412f70f979
communist2012-12-11d01t02.flac:85692bfa951abf322255c01760c34850
communist2012-12-11d01t03.flac:db5d0432b60cf38c5b5f2542318d1897
communist2012-12-11d01t04.flac:fe523ae3c6bd5fa715c10f1738dc9f1e
communist2012-12-11d01t05.flac:2c4a46ed862ddda7501fe55720f8ee59
communist2012-12-11d01t06.flac:c277f79ed654bde72a9c9185ebb35b34
communist2012-12-11d01t07.flac:dd5c154db4b08691271cc0af46f7bcf1
communist2012-12-11d01t08.flac:6ae99f9383cc5abbae6f76e72ea413a8
communist2012-12-11d01t09.flac:29915f3fb7380cc120f865b766e5fb15
communist2012-12-11d01t10.flac:3ab0a7b1aaf3139c50ac3695fa39e51e

Shntool

length expanded size cdr WAVE problems fmt ratio filename
3:38.11 38481116 B --- -- ---xx flac 0.4689 communist2012-12-11d01t01.flac
4:00.39 42427772 B --- -- ---xx flac 0.5204 communist2012-12-11d01t02.flac
3:00.22 31803788 B --- -- ---xx flac 0.5100 communist2012-12-11d01t03.flac
5:44.46 60789836 B --- -- ---xx flac 0.4041 communist2012-12-11d01t04.flac
2:28.36 26191916 B --- -- ---xx flac 0.4521 communist2012-12-11d01t05.flac
5:04.37 53712668 B --- -- ---xx flac 0.4772 communist2012-12-11d01t06.flac
3:23.26 35870396 B --- -- ---xx flac 0.4065 communist2012-12-11d01t07.flac
4:13.10 44652764 B --- -- ---xx flac 0.5109 communist2012-12-11d01t08.flac
4:06.48 43507340 B --- -- ---xx flac 0.5468 communist2012-12-11d01t09.flac
4:36.21 48735836 B --- -- ---xx flac 0.5557 communist2012-12-11d01t10.flac
40:15.71 426173432 B 0.4849 (10 files)

















Checksumscommunist2012-12-11d01t01.flac:bd7c1c928f65047730e846412f70f979<br />
communist2012-12-11d01t02.flac:85692bfa951abf322255c01760c34850<br />
communist2012-12-11d01t03.flac:db5d0432b60cf38c5b5f2542318d1897<br />
communist2012-12-11d01t04.flac:fe523ae3c6bd5fa715c10f1738dc9f1e<br />
communist2012-12-11d01t05.flac:2c4a46ed862ddda7501fe55720f8ee59<br />
communist2012-12-11d01t06.flac:c277f79ed654bde72a9c9185ebb35b34<br />
communist2012-12-11d01t07.flac:dd5c154db4b08691271cc0af46f7bcf1<br />
communist2012-12-11d01t08.flac:6ae99f9383cc5abbae6f76e72ea413a8<br />
communist2012-12-11d01t09.flac:29915f3fb7380cc120f865b766e5fb15<br />
communist2012-12-11d01t10.flac:3ab0a7b1aaf3139c50ac3695fa39e51e<br />
TypeOther
Last seederLast activity 61 days, 00:14:51 ago
Size197.08 MB (206651004 Bytes)
Added2012-12-12 17:13:27
Views0
Hits111
Snatched14 times
Upped byzmanatl
Num files
[See full list]
11 files
Seeders
[Hide list]
0 Seeder(s)
Leechers
[Hide list]
0 Leecher(s)

Add a comment

_MULETAPER 2012-12-12 22:17:40
you coming south this weekend?
phil_er_up 2012-12-13 14:48:49
Thanks Z for your time and effort.

What kind of music is:
"Communist SisterThe Royale"
vatec80 2012-12-13 17:46:01
Its actually Communist Daughter-saw them open for Jason in Charlotte-lot better than I expected but hate the name....
rhinowing 2012-12-16 01:56:58
name is a Neutral Milk Hotel reference

Add a comment


http://etree.org : http://db.etree.org : http://forums.etree.org : http://wiki.etree.org : Legal : RSS Feed

Contents designed & maintained by the etree.org volunteers
1998-2014, etree.org, except where noted. All Rights Reserved.
Read our terms of service and privacy guidelines