bt.etree.org
etree.org Community Bittorrent Tracker
ArtistOther
ShowPapa Grows Funk Smith's Olde Bar Atlanta, Georgia 12/13/2012 (Schoeps CCM4V'S FOB)
Report this as
non-Trade-Friendly
Email us
Torrentpapa2012-12-13.flac16.torrent (click to download)
Downloads aspapa2012-12-13.flac16
Info hash7058dbfaf7f1800367a2a36f24d9b0c8bfd33677
DescriptionPapa Grows Funk
Smith's Olde Bar
Atlanta, Georgia
12/13/2012

Source: Schoeps CCM4V'S(din)>Lunatec V2>Benchmark AD2K>
Sound Devices 722 (24/48)
FOB/DFC/KFC/ZFC/AARP 18' From Stage, 7' High
DSP: Sound Devices 722>Sound Forge 9.0>CD Wave>flac(16)
Recorded By: Z-Man
Seeded By: Z-Man

Disc I

01 ?
02 ?
03 ?
04 ?
05 ?
06 ?
07 ?

Disc II

01 ?
02 Ain't No Use >
03 Needle In The Groove
04 Little Wing >
05 ? >
06 Drum Solo >
07 ?

Flac Fingerprint

papa2012-12-13d01t01.flac:faf08d7233a8dccc96efd1bdb238c733
papa2012-12-13d01t02.flac:f9a9967f8c495239e63372e16f4c0c53
papa2012-12-13d01t03.flac:9a534176e1be904bf6e9307e47570d82
papa2012-12-13d01t04.flac:759f939bfb4774500d5b9d0336f5aed2
papa2012-12-13d01t05.flac:a5393e1a865fd1ce56ee7808d70bd011
papa2012-12-13d01t06.flac:28d471065328aacab678386fde81b10e
papa2012-12-13d01t07.flac:f0d036ee3eb39fe39eab76a6e408f96e
papa2012-12-13d02t01.flac:8ab4cd5c18cb51948d3fbcd91adbfff7
papa2012-12-13d02t02.flac:8c24628f5aadfbf69b02798e0f807043
papa2012-12-13d02t03.flac:db618e9ccb68f057a9fb6f50a88bb583
papa2012-12-13d02t04.flac:057b23028dac93863b7804d741f61c01
papa2012-12-13d02t05.flac:4e6e04fea6303f49033d0bb9364ea8f6
papa2012-12-13d02t06.flac:03700f4a722b9af5d1c68b5826870070
papa2012-12-13d02t07.flac:9c07609b87285dd82e85029ccc7d47fd

Shntool

length expanded size cdr WAVE problems fmt ratio filename
7:44.49 81964892 B --- -- ---xx flac 0.5007 papa2012-12-13d01t01.flac
7:59.09 84516812 B --- -- ---xx flac 0.5233 papa2012-12-13d01t02.flac
10:00.32 105915308 B --- -- ---xx flac 0.5045 papa2012-12-13d01t03.flac
10:49.36 114568316 B --- -- ---xx flac 0.4734 papa2012-12-13d01t04.flac
4:57.27 52454348 B --- -- ---xx flac 0.4937 papa2012-12-13d01t05.flac
4:21.42 46139228 B --- -- ---xx flac 0.4937 papa2012-12-13d01t06.flac
6:23.28 67627100 B --- -- ---xx flac 0.5134 papa2012-12-13d01t07.flac
6:57.65 73711724 B --- -- ---xx flac 0.5163 papa2012-12-13d02t01.flac
14:05.48 149170940 B --- -- ---xx flac 0.4735 papa2012-12-13d02t02.flac
9:15.30 97972604 B --- -- ---xx flac 0.5196 papa2012-12-13d02t03.flac
9:25.70 99830684 B --- -- ---xx flac 0.4571 papa2012-12-13d02t04.flac
3:10.47 33626588 B --- -- ---xx flac 0.5165 papa2012-12-13d02t05.flac
6:32.14 69181772 B --- -- ---xx flac 0.4794 papa2012-12-13d02t06.flac
5:03.03 53456300 B --- -- ---xx flac 0.5277 papa2012-12-13d02t07.flac
106:46.50 1130136616 B 0.4958 (14 files)









Checksumspapa2012-12-13d01t01.flac:faf08d7233a8dccc96efd1bdb238c733
papa2012-12-13d01t02.flac:f9a9967f8c495239e63372e16f4c0c53
papa2012-12-13d01t03.flac:9a534176e1be904bf6e9307e47570d82
papa2012-12-13d01t04.flac:759f939bfb4774500d5b9d0336f5aed2
papa2012-12-13d01t05.flac:a5393e1a865fd1ce56ee7808d70bd011
papa2012-12-13d01t06.flac:28d471065328aacab678386fde81b10e
papa2012-12-13d01t07.flac:f0d036ee3eb39fe39eab76a6e408f96e
papa2012-12-13d02t01.flac:8ab4cd5c18cb51948d3fbcd91adbfff7
papa2012-12-13d02t02.flac:8c24628f5aadfbf69b02798e0f807043
papa2012-12-13d02t03.flac:db618e9ccb68f057a9fb6f50a88bb583
papa2012-12-13d02t04.flac:057b23028dac93863b7804d741f61c01
papa2012-12-13d02t05.flac:4e6e04fea6303f49033d0bb9364ea8f6
papa2012-12-13d02t06.flac:03700f4a722b9af5d1c68b5826870070
papa2012-12-13d02t07.flac:9c07609b87285dd82e85029ccc7d47fd
Visibleno (dead)
TypeOther
Last seederLast activity 96 days, 17:40:41 ago
Size534.36 MB (560319020 Bytes)
Added2012-12-14 09:12:59
Views0
Hits177
Snatched61 times
Upped byzmanatl
Num files15 files
File List
[Hide list]
filenamesizemd5
papa2012-12-13d02t02.flac67.36 MBN/A
papa2012-12-13d01t04.flac51.72 MBN/A
papa2012-12-13d01t03.flac50.96 MBN/A
papa2012-12-13d02t03.flac48.55 MBN/A
papa2012-12-13d02t04.flac43.52 MBN/A
papa2012-12-13d01t02.flac42.18 MBN/A
papa2012-12-13d01t01.flac39.14 MBN/A
papa2012-12-13d02t01.flac36.30 MBN/A
papa2012-12-13d01t07.flac33.11 MBN/A
papa2012-12-13d02t06.flac31.63 MBN/A
papa2012-12-13d02t07.flac26.90 MBN/A
papa2012-12-13d01t05.flac24.70 MBN/A
papa2012-12-13d01t06.flac21.72 MBN/A
papa2012-12-13d02t05.flac16.56 MBN/A
papa2012-12-13.textfile.txt2.7 kBN/A
Peers
[See full list]
0 seeders, 0 leechers = 0 peers total

Add a comment

Hutchy 2012-12-14 12:11:23
Thank you very much.


jeetyet 2012-12-15 13:04:10
10 Q!!! duh duh duh duh this is a job for Z-Man, able to record every show in a single night, stronger than espresso,faster than a speeding bullet, strange visitor.....super hero of the taping world!!!!!!!

Add a comment


http://etree.org : http://db.etree.org : http://forums.etree.org : http://wiki.etree.org : Legal : RSS Feed

Contents designed & maintained by the etree.org volunteers
1998-2014, etree.org, except where noted. All Rights Reserved.
Read our terms of service and privacy guidelines