bt.etree.org
etree.org Community Bittorrent Tracker
ArtistGrateful Dead
Showgd77-10-02.sbd.miller.123102.flac16
Report this as
non-Trade-Friendly
Email us
Torrentgd77-10-02.sbd.miller.123102.flac16.torrent (click to download)
Downloads asgd77-10-02.sbd.miller.123102.flac16
Info hash531e788513779da210c3e4e146dc0788257a57b8
db linkhttp://db.etree.org/shn/123102 | Show | Source
DescriptionGrateful Dead - October 2, 1977
Paramount Theatre - Portland, OR

Recording Info:
SBD -> Master Reel -> PCM -> Dat

Transfer Info:
Dat (Tascam DA-20) -> Tascam SS-R05 -> Samplitude Professional v11.2.1 -> FLAC
(3 Discs Audio / 1 DVD FLAC)

All Transfers and Mastering By Charlie Miller
charliemiller87@earthlink.net
December 13, 2012

Notes:
-- Set 2 is seamless
-- Tape flip in Wharf Rat at 9:24

Set 1:
d1t01 - Tuning
d1t02 - Casey Jones
d1t03 - Jack Straw
d1t04 - Sunrise
d1t05 - Brown Eyed Women
d1t06 - El Paso
d1t07 - Dupree's Diamond Blues
d1t08 - Let It Grow
d1t09 - Deal

Set 2:
d2t01 - Tuning
d2t02 - Samson And Delilah
d2t03 - Scarlet Begonias ->
d2t04 - Fire On The Mountain
d2t05 - Funiculi Funicula
d2t06 - Playing In The Band ->
d2t07 - Drums ->
d3t01 - The Wheel ->
d3t02 - Truckin' ->
d3t03 - The Other One ->
d3t04 - Wharf Rat ->
d3t05 - Sugar Magnolia

Encore:
d3t06 - Johnny B. Goode

Checksums
SHNTOOL OUTPUT:
length expanded size cdr WAVE problems fmt ratio filename
0:55.52 9824348 B --- -- ---xx flac 0.4159 gd77-10-02d1t01.flac
12:51.60 136145564 B --- -- ---xx flac 0.5603 gd77-10-02d1t02.flac
5:51.34 61996412 B --- -- ---xx flac 0.5683 gd77-10-02d1t03.flac
5:31.66 58543676 B --- -- ---xx flac 0.5010 gd77-10-02d1t04.flac
6:22.72 67554188 B --- -- ---xx flac 0.5583 gd77-10-02d1t05.flac
6:31.38 69061820 B --- -- ---xx flac 0.5156 gd77-10-02d1t06.flac
6:27.34 68346812 B --- -- ---xx flac 0.5680 gd77-10-02d1t07.flac
13:54.15 147152924 B --- -- ---xx flac 0.5852 gd77-10-02d1t08.flac
7:02.28 74506700 B --- -- ---xx flac 0.6223 gd77-10-02d1t09.flac
1:49.02 19232348 B --- -- ---xx flac 0.3965 gd77-10-02d2t01.flac
8:13.27 87028748 B --- -- ---xx flac 0.5843 gd77-10-02d2t02.flac
9:09.23 96897740 B --- -- ---xx flac 0.6087 gd77-10-02d2t03.flac
14:13.36 150553916 B --- -- ---xx flac 0.5657 gd77-10-02d2t04.flac
0:58.29 10299452 B --- -- ---xx flac 0.5159 gd77-10-02d2t05.flac
8:55.26 94435196 B --- -- ---xx flac 0.6080 gd77-10-02d2t06.flac
6:07.01 64741196 B --- -- ---xx flac 0.5502 gd77-10-02d2t07.flac
5:23.38 57066620 B --- -- ---xx flac 0.5970 gd77-10-02d3t01.flac
8:43.23 92311340 B --- -- ---xx flac 0.6128 gd77-10-02d3t02.flac
7:26.42 78773228 B --- -- ---xx flac 0.5715 gd77-10-02d3t03.flac
10:48.71 114474236 B --- -- ---xx flac 0.5190 gd77-10-02d3t04.flac
11:14.30 118964204 B --- -- ---xx flac 0.5623 gd77-10-02d3t05.flac
4:21.40 46134524 B --- -- ---xx flac 0.6383 gd77-10-02d3t06.flac
162:53.37 1724045192 B 0.5696 (22 files)


81916e0476bcfe2f48b48df729866611 *gd77-10-02d1t01.flac
73b04573ec3dc5bac7fe74f34fc93369 *gd77-10-02d1t02.flac
218769a6cedeb7f359977f3fe539b8f6 *gd77-10-02d1t03.flac
c8b7bc9f681f8f8c29eaff24aca8838f *gd77-10-02d1t04.flac
875951cbe42baca04dc4b70ff386ab69 *gd77-10-02d1t05.flac
6581438619dc1f75d88ef0bbc05e7029 *gd77-10-02d1t06.flac
4768eb7c3c9c15cbdca53b38db07bc39 *gd77-10-02d1t07.flac
62b430a32fedc15bb7d50136f564e320 *gd77-10-02d1t08.flac
63368a61bf478440c91d992c0eb1afcc *gd77-10-02d1t09.flac
fb6e1d1ba4bf4fa14b79f99b48c2a39d *gd77-10-02d2t01.flac
5f95ed8ca6596bc699f2daf41c6592cb *gd77-10-02d2t02.flac
01d8855e34cd60fbdd6c5024f78f0a41 *gd77-10-02d2t03.flac
a7de05a00f9b58aa6984b1cbc7a66315 *gd77-10-02d2t04.flac
bf9a9fba524af616bdec194bd3ae998e *gd77-10-02d2t05.flac
21a3b95a9f605e73efd6289c233e5590 *gd77-10-02d2t06.flac
e60503749d9ea0492948feaf1b02b7a0 *gd77-10-02d2t07.flac
54a5eaaa212d258969ccb69368c21d7d *gd77-10-02d3t01.flac
e6254a53c136847d5b2c2cfdf5f6ee11 *gd77-10-02d3t02.flac
b4f4217e5a1f96c6e5ed3fe74576abfe *gd77-10-02d3t03.flac
3354220c536b9a3a04aa597f0d0ef70c *gd77-10-02d3t04.flac
516c4c65e5048e22a575b6647f61c326 *gd77-10-02d3t05.flac
598a7a67162350d6e61659e5e3ec728b *gd77-10-02d3t06.flac
TypeGrateful Dead
Last seederLast activity 16:33 ago
Size936.47 MB (981958050 Bytes)
Added2012-12-14 16:54:30
Views3
Hits9729
Snatched1026 times
Upped byseedin_for_jesus
Num files25 files
File List
[Hide list]
filenamesizemd5
gd77-10-02d1t08.flac82.12 MBN/A
gd77-10-02d2t04.flac81.23 MBN/A
gd77-10-02d1t02.flac72.75 MBN/A
gd77-10-02d3t05.flac63.79 MBN/A
gd77-10-02d3t04.flac56.66 MBN/A
gd77-10-02d2t03.flac56.25 MBN/A
gd77-10-02d2t06.flac54.76 MBN/A
gd77-10-02d3t02.flac53.95 MBN/A
gd77-10-02d2t02.flac48.49 MBN/A
gd77-10-02d1t09.flac44.22 MBN/A
gd77-10-02d3t03.flac42.93 MBN/A
gd77-10-02d1t07.flac37.02 MBN/A
gd77-10-02d1t05.flac35.97 MBN/A
gd77-10-02d2t07.flac33.97 MBN/A
gd77-10-02d1t06.flac33.96 MBN/A
gd77-10-02d1t03.flac33.60 MBN/A
gd77-10-02d3t01.flac32.49 MBN/A
gd77-10-02d3t06.flac28.08 MBN/A
gd77-10-02d1t04.flac27.97 MBN/A
gd77-10-02d2t01.flac7.27 MBN/A
gd77-10-02d2t05.flac5.07 MBN/A
gd77-10-02d1t01.flac3.90 MBN/A
gd77-10-02.123102.txt3.0 kBN/A
gd77-10-02.md51.2 kBN/A
gd77-10-02.ffp1.2 kBN/A
Peers
[See full list]
8 seeders, 0 leechers = 8 peers total

Add a comment

seedin_for_jesus 2012-12-14 16:57:15
Thank You Charlie
detroitlightn 2012-12-14 18:11:27
thank you
tommie01 2012-12-14 18:25:11
Great, great, show. Thanks for "seedin'".
zebweber 2012-12-14 19:01:40
Jerry's famous interview with the major league ssssnnnnnnrrrrrrttttts is from before soundcheck of this show ;)
LetItRollOn 2012-12-14 20:54:19
Love it! Thank you!!
kayatosh 2012-12-14 21:52:40
thank you. sounds good. highlights: dupree's, let it grow! and scar>fire, playin, wheel>truckin>TOO>wharf
rocktonsteve 2012-12-15 00:02:49
Absolutely wonderful!!!!

Thank you Charlie!
thewaymouth 2012-12-15 18:56:02
TYSVM for the sweet port to port.
Pisces 2012-12-16 11:45:15
Thanks!
thecat18 2012-12-16 15:00:02
Thanks for sharing.
dzd625 2013-05-13 13:25:25
Many thanks for sharing the show
NaknDead 2013-08-01 18:19:58
Such great memories with this tape providing soundtrack. Love The Wheel. Nice to hear with the bias, etc, just exactly perfect. Thx to all for keeping this show playin'

Add a comment


http://etree.org : http://db.etree.org : http://forums.etree.org : http://wiki.etree.org : Legal : RSS Feed

Contents designed & maintained by the etree.org volunteers
1998-2014, etree.org, except where noted. All Rights Reserved.
Read our terms of service and privacy guidelines