bt.etree.org
etree.org Community Bittorrent Tracker
ArtistWarren Haynes
ShowWarren Haynes Band Warren Haynes Christmas Pre-Jam Orange Peel Asheville, North Carolina 12/14/2012 (Schoeps CCM4V'S)
Report this as
non-Trade-Friendly
Email us
Torrentwhb2012-12-14.flac16.torrent (click to download)
Downloads aswhb2012-12-14.flac16
Info hashff93099d86cdf34efc981e65f68971a54b32936e
DescriptionWarren Haynes Band
Warren Haynes Christmas Pre-Jam
Orange Peel
Asheville, North Carolina
12/14/2012

Source: Schoeps CCM4V'S(din)>Sound Devices 722 (24/48)
At Soundboard/DFC/KFC/ZFC/AARP 40' From Stage, 8' High
DSP: Sound Devices 722>Sound Forge 9.0>CD Wave>flac(16)
Recorded By: Z-Man
Seeded By: Z-Man

Disc I

01 Introduction By Uncle Dave x 2
02 Intro Jam >
03 Sick Of My Shadow
04 The River's Gonna Rise
05 All My Love >
06 *#Feel Like Breaking Up Somebody's Home >
07 *#Don't Change Horses In Mid-Stream
08 Bring Em' Back
Encore:
09 Band Introductions/Jam >
10 Tear Me Down
11 Outro By Martin Anderson

* With Mike Barnes On Guitar
# With Michael Travis Of String Cheese Incident On Percussion
(Warren Announced Him As Jason Hann)

Flac Fingerprint

whb2012-12-14d01t01.flac:e17c941222331fb10061c2a642a8f636
whb2012-12-14d01t02.flac:609650d09ea93eabe058368708c88a1e
whb2012-12-14d01t03.flac:1488abb103bccc923eba8d86f0b27665
whb2012-12-14d01t04.flac:b4d0443548df3b489ab1342064efcdf4
whb2012-12-14d01t05.flac:5dbf24eec5e79b6076e3f177e988097f
whb2012-12-14d01t06.flac:212656008347c8113134b83920e098df
whb2012-12-14d01t07.flac:7eedfd27dcacc0af5f8f3102f6d0eb54
whb2012-12-14d01t08.flac:cac42a042ddf0acd9a77b6e4b726d891
whb2012-12-14d01t09.flac:438e3b3e3f0d11f94c5346680e13d726
whb2012-12-14d01t10.flac:f75f32903e6861aa94039db872f20b23
whb2012-12-14d01t11.flac:ad225a677eb2c81b03cbf3b5b60dcc27

Shntool

length expanded size cdr WAVE problems fmt ratio filename
2:05.04 22059452 B --- -- ---xx flac 0.3549 whb2012-12-14d01t01.flac
2:39.54 28174652 B --- -- ---xx flac 0.5203 whb2012-12-14d01t02.flac
9:07.43 96591980 B --- -- ---xx flac 0.5450 whb2012-12-14d01t03.flac
8:36.18 91064780 B --- -- ---xx flac 0.4863 whb2012-12-14d01t04.flac
7:06.53 75271100 B --- -- ---xx flac 0.4557 whb2012-12-14d01t05.flac
10:44.29 113669852 B --- -- ---xx flac 0.5278 whb2012-12-14d01t06.flac
4:25.43 46847180 B --- -- ---xx flac 0.5408 whb2012-12-14d01t07.flac
1:18.31 13832156 B --- -- ---xx flac 0.3992 whb2012-12-14d01t08.flac
3:56.09 41651612 B --- -- ---xx flac 0.4894 whb2012-12-14d01t09.flac
7:09.68 75835580 B --- -- ---xx flac 0.5686 whb2012-12-14d01t10.flac
2:07.58 22539260 B --- -- ---xx flac 0.3998 whb2012-12-14d01t11.flac
59:17.35 627537604 B 0.5053 (11 files)
Checksumswhb2012-12-14d01t01.flac:e17c941222331fb10061c2a642a8f636
whb2012-12-14d01t02.flac:609650d09ea93eabe058368708c88a1e
whb2012-12-14d01t03.flac:1488abb103bccc923eba8d86f0b27665
whb2012-12-14d01t04.flac:b4d0443548df3b489ab1342064efcdf4
whb2012-12-14d01t05.flac:5dbf24eec5e79b6076e3f177e988097f
whb2012-12-14d01t06.flac:212656008347c8113134b83920e098df
whb2012-12-14d01t07.flac:7eedfd27dcacc0af5f8f3102f6d0eb54
whb2012-12-14d01t08.flac:cac42a042ddf0acd9a77b6e4b726d891
whb2012-12-14d01t09.flac:438e3b3e3f0d11f94c5346680e13d726
whb2012-12-14d01t10.flac:f75f32903e6861aa94039db872f20b23
whb2012-12-14d01t11.flac:ad225a677eb2c81b03cbf3b5b60dcc27
TypeWarren Haynes
Last seederLast activity 30:13 ago
Size302.39 MB (317078631 Bytes)
Added2012-12-15 02:52:17
Views0
Hits752
Snatched489 times
Upped byzmanatl
Num files
[See full list]
12 files
Peers
[See full list]
1 seeder, 0 leechers = 1 peer total

Add a comment

Reelboy 2012-12-15 03:09:41
Thank you very much!
dorrcoq 2012-12-15 03:59:01
zman wasting no time, I see! Thanks!
raimax 2012-12-15 04:45:11
thank you
Tomahawk Kid 2012-12-15 05:02:35
Thank you!
brofan 2012-12-15 05:20:07
Thanks, Z-Man!

BTW, make sure you try The Lobster Trap in A-ville.

Awesome lobster rolls....
africolaman 2012-12-15 05:57:52
Thanks.
msp_mule 2012-12-15 06:19:54
Thank you.
Granaas6 2012-12-15 07:51:54
Wow! That was fast, Z. Good job!
EarthRocks 2012-12-15 08:04:15
Any Incident last night?Damn I wish I could have made it to Asheville for this. But Iguess we all get the next best thing, Z will be taping it for us. Thanks Z!! And thats funny about Travis being introduced as Jason Haan.
Tom_of_Mule 2012-12-15 09:20:58
Thanks Z !
Tom
Timezone 2012-12-15 11:12:36
Thanks, Very nice of you.
MULE TAPER 2012-12-15 11:18:34
Thanks Z!! sounds great an awesome recording!
Blues_Ken 2012-12-16 09:50:50
Thank you Zman
mike1061 2012-12-16 20:12:47
Thanks
Mike
poizon45 2012-12-17 09:48:12
hey thanks zman!
sprobeck 2012-12-17 14:05:58
Since someone said this was the best event of the weekend I couldn't pass it up could I?
_MULETAPER 2012-12-17 15:46:05
pre jam was the FAR best event of the weekend

Add a comment


http://etree.org : http://db.etree.org : http://forums.etree.org : http://wiki.etree.org : Legal : RSS Feed

Contents designed & maintained by the etree.org volunteers
1998-2014, etree.org, except where noted. All Rights Reserved.
Read our terms of service and privacy guidelines