bt.etree.org
etree.org Community Bittorrent Tracker
ArtistAnders Osborne
ShowAnders Osborne Warren Haynes Christmas Pre-Jam Orange Peel Asheville, North Carolina 12/14/2012 (Schoeps CCM4V'S)
Report this as
non-Trade-Friendly
Email us
Torrentanders2012-12-14.flac16.torrent (click to download)
Downloads asanders2012-12-14.flac16
Info hash0d042c6b12ea8c671b8419bcde8cd56c72c6c0c6
db linkhttp://db.etree.org/shn/130050 | Show | Source
DescriptionAnders Osborne
Warren Haynes Christmas Pre-Jam
Orange Peel
Asheville, North Carolina
12/14/2012

Source: Schoeps CCM4V'S(din)>Sound Devices 722 (24/48)
At Soundboard/DFC/KFC/ZFC/AARP 40' From Stage, 8' High
DSP: Sound Devices 722>Sound Forge 9.0>CD Wave>flac(16)
Recorded By: Z-Man
Seeded By: Z-Man

Disc I

01 Introduction
02 Burning From The Inside Out
03 *Black Tar
04 #Spanish Moon
05 #@Wnen I Paint my Masterpiece
06 #+Ohio >
07 #+Get Up, Stand Up >
08 #+Ohio
09 Outro

* With Mike Barnes On Guitar
# With Audley Freed On Guitar
@ With Roosevelt Collier On Lap Steel Guitar
^ With Nigel Hall On Keyboards
+ With Warren Haynes On Guitar And Vocals

Flac Fingerprint

anders2012-12-14d01t01.flac:453ec27bf878129afb8c467dcb53b7dd
anders2012-12-14d01t02.flac:76df52db3da78a4804560949a507a342
anders2012-12-14d01t03.flac:8a2131f84c7e5c85f8104ec3b4c769e9
anders2012-12-14d01t04.flac:4e90f1a319b2baebca456263668fcded
anders2012-12-14d01t05.flac:2583085f834cda8886bb5ba60b2da672
anders2012-12-14d01t06.flac:49d4d96d93f3577c170c139cf2e7ce2b
anders2012-12-14d01t07.flac:a5d7c60086be00f3cf8461d68c8b493f
anders2012-12-14d01t08.flac:cb53f1729998980a8c2eb4bf1e68a5f6
anders2012-12-14d01t09.flac:0e02567200ac7779c1d9450425ab62b2

Shntool

length expanded size cdr WAVE problems fmt ratio filename
1:24.00 14817644 B --- -- ---xx flac 0.3693 anders2012-12-14d01t01.flac
12:47.30 135369404 B --- -- ---xx flac 0.5290 anders2012-12-14d01t02.flac
8:18.58 87983660 B --- -- ---xx flac 0.5358 anders2012-12-14d01t03.flac
9:03.37 95872268 B --- -- ---xx flac 0.5055 anders2012-12-14d01t04.flac
8:59.61 95223116 B --- -- ---xx flac 0.4735 anders2012-12-14d01t05.flac
7:53.56 83568956 B --- -- ---xx flac 0.5265 anders2012-12-14d01t06.flac
0:50.32 8895308 B --- -- ---xx flac 0.4928 anders2012-12-14d01t07.flac
3:10.23 33570140 B --- -- ---xx flac 0.5070 anders2012-12-14d01t08.flac
1:30.54 16003052 B --- -- ---xx flac 0.4150 anders2012-12-14d01t09.flac
53:58.51 571303548 B 0.5073 (9 files)

















Checksumsanders2012-12-14d01t01.flac:453ec27bf878129afb8c467dcb53b7dd<br />
anders2012-12-14d01t02.flac:76df52db3da78a4804560949a507a342<br />
anders2012-12-14d01t03.flac:8a2131f84c7e5c85f8104ec3b4c769e9<br />
anders2012-12-14d01t04.flac:4e90f1a319b2baebca456263668fcded<br />
anders2012-12-14d01t05.flac:2583085f834cda8886bb5ba60b2da672<br />
anders2012-12-14d01t06.flac:49d4d96d93f3577c170c139cf2e7ce2b<br />
anders2012-12-14d01t07.flac:a5d7c60086be00f3cf8461d68c8b493f<br />
anders2012-12-14d01t08.flac:cb53f1729998980a8c2eb4bf1e68a5f6<br />
anders2012-12-14d01t09.flac:0e02567200ac7779c1d9450425ab62b2
TypeAnders Osborne
Last seederLast activity 17:46 ago
Size276.40 MB (289822931 Bytes)
Added2012-12-15 03:28:51
Views0
Hits870
Snatched519 times
Upped byzmanatl
Num files10 files
File List
[Hide list]
filenamesizemd5
anders2012-12-14d01t02.flac68.29 MBN/A
anders2012-12-14d01t04.flac46.22 MBN/A
anders2012-12-14d01t03.flac44.96 MBN/A
anders2012-12-14d01t05.flac43.00 MBN/A
anders2012-12-14d01t06.flac41.96 MBN/A
anders2012-12-14d01t08.flac16.23 MBN/A
anders2012-12-14d01t09.flac6.33 MBN/A
anders2012-12-14d01t01.flac5.22 MBN/A
anders2012-12-14d01t07.flac4.18 MBN/A
anders2012-12-14.textfile.txt2.3 kBN/A
Peers
[See full list]
3 seeders, 0 leechers = 3 peers total

Add a comment

raimax 2012-12-15 04:45:38
thank you
Tomahawk Kid 2012-12-15 05:01:07
Thank you very much!
africolaman 2012-12-15 05:58:16
Thanks.
phishingbart 2012-12-15 06:13:27
Thanks cant wait for cheese. SCI forever but Anders is awsome.
Tom_of_Mule 2012-12-15 09:22:17
Thanks Z !
Tom
coachdietsch 2012-12-15 10:10:06
track #3 should be Black Tar

thanks for sharing!
zmanatl 2012-12-15 11:05:29
Here is my only amateur video of the night. Surrounded by a couple of drunks bumping into me during this video. Better than nothing!
zmanatl 2012-12-15 11:05:48
Oops, need this I guess: http://youtu.be/L1ch3uWK6nM
Timezone 2012-12-15 11:11:43
Thanks for this.
lowspark211 2012-12-15 13:44:55
anders is on fire right night.

saw his xmas show at tips

see him if you can.......
vwmule 2012-12-15 14:33:07
Very nice. Thanks, Z.
bigdaddybflo 2012-12-15 14:47:18
Surrounded by a couple of drunks bumping into me during this video... really, there is drunk people at x-mas jam? Should of kicked their teeth out.
jeffandkris 2012-12-15 23:41:02
Thanks Zman, would loved to have seen Warren and Anders as they did not play together at Telluride B&B. Last Xmas Jam was so much fun wanted to make the journey from the left coast but just could not make it happen.
nick_b 2012-12-16 04:59:23
Hell yeah Z....wish you could be there for the reprise next weekend!
Blues_Ken 2012-12-16 09:53:32
Thank you Zman
GrooveDogger 2012-12-16 18:42:25
Sweet. Looking forward to hearing Anders and Audley together. I was hoping for the same at Xmas Jam to no avail. Thanks for sharing.
mike1061 2012-12-16 20:12:26
Thanks
Mike
jason_nc 2013-01-21 16:57:03
thanks

Add a comment


http://etree.org : http://db.etree.org : http://forums.etree.org : http://wiki.etree.org : Legal : RSS Feed

Contents designed & maintained by the etree.org volunteers
1998-2014, etree.org, except where noted. All Rights Reserved.
Read our terms of service and privacy guidelines