bt.etree.org
etree.org Community Bittorrent Tracker
ArtistOther
ShowTrombone Shory And Orleans Avenue Warren Haynes Christmas Pre-Jam Orange Peel Asheville, North Carolina 12/14/2012 (Schoeps CCM4V'S)
Report this as
non-Trade-Friendly
Email us
Torrentshorty2012-12-14.flac16.torrent (click to download)
Downloads asshorty2012-12-14.flac16
Info hashe14667899ee04f56f7a4213e03aaf2c5b7ac7d0b
DescriptionTrombone Shorty And Orleans Avenue
Warren Haynes Christmas Pre-Jam
Orange Peel
Asheville, North Carolina
12/14/2012

Source: Schoeps CCM4V'S(din)>Sound Devices 722 (24/48)
At Soundboard/DFC/KFC/ZFC/AARP 40' From Stage, 8' High
DSP: Sound Devices 722>Sound Forge 9.0>CD Wave>flac(16)
Recorded By: Z-Man
Seeded By: Z-Man

Disc I

01 Introduction By Martin Anderson
02 Your Love Makes Me Do The Craziest Things >
03 Suburbia
04 Mrs. Orleans
05 Hurricane Season
06 Lead In To Dumaine Street >
07 Dumaine Street
08 Band Introductions
09 St. James Infirmary
10 When The Saints Go Marching In >
11 Down By The Riverside >
12 When The Saints Go Marching In
13 *Do To Me
14 Outro By Martin Anderson

* With Warren Haynes On Guitar

Flac Fingerprint

shorty2012-12-14d01t01.flac:1311438d1241dc855c7b771966165799
shorty2012-12-14d01t02.flac:7b5555e64dd13d3fcc90759ce16df74c
shorty2012-12-14d01t03.flac:ceb8c9483dfd31ba620a8a1429e5f8a8
shorty2012-12-14d01t04.flac:045c8e314074e482c4ff05200e057381
shorty2012-12-14d01t05.flac:2f8be59fc636be6e7ba81a480a47455e
shorty2012-12-14d01t06.flac:b8139104ea3ef8cd42ae721039f66b4e
shorty2012-12-14d01t07.flac:61a979fe01768bb57bbf21d11c4d851e
shorty2012-12-14d01t08.flac:5e61b1d80f2fd556e65e1efe15a61307
shorty2012-12-14d01t09.flac:6c1fae0d50fc78d4663e263ada4c358b
shorty2012-12-14d01t10.flac:cbbe336165826eacfefcf10bce96926b
shorty2012-12-14d01t11.flac:415de7598c08ab5f2dc4e27da5317908
shorty2012-12-14d01t12.flac:1e777ef60a7d4ed287bcc34f85917a4e
shorty2012-12-14d01t13.flac:a25328aabbb83aae803e8da6657ad768
shorty2012-12-14d01t14.flac:2dc633db788dc334bc8eec2f6d9d08ed

Shntool

length expanded size cdr WAVE problems fmt ratio filename
0:51.70 9161084 B --- -- ---xx flac 0.3847 shorty2012-12-14d01t01.flac
3:40.41 38904476 B --- -- ---xx flac 0.6017 shorty2012-12-14d01t02.flac
4:41.37 49655468 B --- -- ---xx flac 0.6021 shorty2012-12-14d01t03.flac
5:23.01 56979596 B --- -- ---xx flac 0.5703 shorty2012-12-14d01t04.flac
4:14.12 44833868 B --- -- ---xx flac 0.5823 shorty2012-12-14d01t05.flac
3:34.27 37813148 B --- -- ---xx flac 0.4202 shorty2012-12-14d01t06.flac
2:14.63 23785820 B --- -- ---xx flac 0.5807 shorty2012-12-14d01t07.flac
0:38.54 6830252 B --- -- ---xx flac 0.4096 shorty2012-12-14d01t08.flac
9:02.35 95691164 B --- -- ---xx flac 0.5050 shorty2012-12-14d01t09.flac
2:07.39 22494572 B --- -- ---xx flac 0.4750 shorty2012-12-14d01t10.flac
4:15.71 45149036 B --- -- ---xx flac 0.4896 shorty2012-12-14d01t11.flac
1:24.56 14949356 B --- -- ---xx flac 0.5647 shorty2012-12-14d01t12.flac
6:36.38 69943820 B --- -- ---xx flac 0.5731 shorty2012-12-14d01t13.flac
2:39.65 28200524 B --- -- ---xx flac 0.4020 shorty2012-12-14d01t14.flac
51:26.09 544392184 B 0.5307 (14 files)





















Checksumsshorty2012-12-14d01t01.flac:1311438d1241dc855c7b771966165799<br />
shorty2012-12-14d01t02.flac:7b5555e64dd13d3fcc90759ce16df74c<br />
shorty2012-12-14d01t03.flac:ceb8c9483dfd31ba620a8a1429e5f8a8<br />
shorty2012-12-14d01t04.flac:045c8e314074e482c4ff05200e057381<br />
shorty2012-12-14d01t05.flac:2f8be59fc636be6e7ba81a480a47455e<br />
shorty2012-12-14d01t06.flac:b8139104ea3ef8cd42ae721039f66b4e<br />
shorty2012-12-14d01t07.flac:61a979fe01768bb57bbf21d11c4d851e<br />
shorty2012-12-14d01t08.flac:5e61b1d80f2fd556e65e1efe15a61307<br />
shorty2012-12-14d01t09.flac:6c1fae0d50fc78d4663e263ada4c358b<br />
shorty2012-12-14d01t10.flac:cbbe336165826eacfefcf10bce96926b<br />
shorty2012-12-14d01t11.flac:415de7598c08ab5f2dc4e27da5317908<br />
shorty2012-12-14d01t12.flac:1e777ef60a7d4ed287bcc34f85917a4e<br />
shorty2012-12-14d01t13.flac:a25328aabbb83aae803e8da6657ad768<br />
shorty2012-12-14d01t14.flac:2dc633db788dc334bc8eec2f6d9d08ed<br />
TypeOther
Last seederLast activity 20:00 ago
Size275.54 MB (288920448 Bytes)
Added2012-12-15 09:12:24
Views0
Hits572
Snatched356 times
Upped byzmanatl
Num files
[See full list]
15 files
Seeders
[Hide list]
2 Seeder(s)
ip:portclient
version
ul
bytes
dl
bytes
ratiocompleteul
rate
dl
rate
time
connected
time
left
idle
24.101.53.xxx:19181 μtorrent 3.4.2.0 0 B 0 B N/A 100.00%
N/A N/A 7 days, 18:20:03 N/A 13:33
96.60.139.xxx:61643 μtorrent 3.4.2.0 0 B 0 B N/A 100.00%
N/A N/A 6 days, 12:25:40 N/A 20:00
0 of 2 firewalled (0%) 100.00%
N/AN/A
Leechers
[Hide list]
0 Leecher(s)

Add a comment

raimax 2012-12-15 09:36:58
thank you
Tomahawk Kid 2012-12-15 09:50:25
Thank you kindly!
coachdietsch 2012-12-15 10:04:34
without downloading it, not sure how it's tracked.
3. Suburbia>
4. Mrs. Orleans
5. Hurricane Season
6. usually a Shorty lead-in (name?) to Dumaine Street>
7. Dumaine Street

13. Do To Me

those are the songs. I'd have to hear where tracks 6 & 7 fit in. I captured it off the radio, so I think I'm close in setlist. Possibly someone else might know better.
Great St. James Infirmary!

Thanks for sharing.
Tom_of_Mule 2012-12-15 10:30:40
Thanks Z !
Tom
africolaman 2012-12-15 12:17:12
Thanks.
nick_b 2012-12-16 05:14:28
Coach- happen to grab the Anders set from the radio feed?
Blues_Ken 2012-12-16 09:54:52
Thank you Zman
bigdaddybflo 2012-12-16 13:32:26
Did Lenny tape ??
mike1061 2012-12-16 20:11:42
Thanks
Mike

Add a comment


http://etree.org : http://db.etree.org : http://forums.etree.org : http://wiki.etree.org : Legal : RSS Feed

Contents designed & maintained by the etree.org volunteers
1998-2014, etree.org, except where noted. All Rights Reserved.
Read our terms of service and privacy guidelines