bt.etree.org
etree.org Community Bittorrent Tracker
ArtistOther
ShowThe Revivalists Warren Haynes Christmas Pre-Jam Orange Peel Asheville, North Carolina 12/14/2012 (Schoeps CCM4V'S)
Report this as
non-Trade-Friendly
Email us
Torrentrevivalists2012-12-14.flac16.torrent (click to download)
Downloads asrevivalists2012-12-14.flac16
Info hash7541041997f74aacf8f6b15e7f410ae7cdae3332
DescriptionThe Revivalists
Warren Haynes Christmas Pre-Jam
Orange Peel
Asheville, North Carolina
12/14/2012

Source: Schoeps CCM4V'S(din)>Sound Devices 722 (24/48)
At Soundboard/DFC/KFC/ZFC/AARP 40' From Stage, 8' High
DSP: Sound Devices 722>Sound Forge 9.0>CD Wave>flac(16)
Recorded By: Z-Man
Seeded By: Z-Man

Disc I

01 Introduction By Uncle Dave
02 ?
03 ?
04 *?
05 ?
06 ?
07 Soulshine Tease
08 #Stand Here By Your Fire
09 #?
10 Band Introductions
11 Outro By Uncle Dave

* With Roosevelt Collier Of The Lee Boys On Lap Steel Guitar
# With Warren Haynes On Guitar

Flac Fingerprint

revivalists2012-12-14d01t01.flac:05b5248a46e319569f701a28d2f84e83
revivalists2012-12-14d01t02.flac:6c20de8d24ad6be57365836e10fcd3ac
revivalists2012-12-14d01t03.flac:751553dc113da0583495967c55a23ec9
revivalists2012-12-14d01t04.flac:0a478b728a07c61b8076e9dfac0e17e5
revivalists2012-12-14d01t05.flac:21d81fd788813139b0d8465445043a80
revivalists2012-12-14d01t06.flac:bfe87da1dd2274fca79857fca6ae0d85
revivalists2012-12-14d01t07.flac:de4f1f70e4b7bc1e7be8c4b0d6e11df6
revivalists2012-12-14d01t08.flac:fdd0962a97e8c1943184eb23b9513649
revivalists2012-12-14d01t09.flac:594abdc06535a2ef6c1b3338c1fc268d
revivalists2012-12-14d01t10.flac:e6f4f34b3766a1ec796636ba94183b4d
revivalists2012-12-14d01t11.flac:80ca95914916749fdfe8215dc7b01a15

Shntool

length expanded size cdr WAVE problems fmt ratio filename
0:42.02 7413548 B --- -- ---xx flac 0.3642 revivalists2012-12-14d01t01.flac
5:08.54 54458252 B --- -- ---xx flac 0.5495 revivalists2012-12-14d01t02.flac
5:01.16 53134076 B --- -- ---xx flac 0.5543 revivalists2012-12-14d01t03.flac
7:53.28 83503100 B --- -- ---xx flac 0.5572 revivalists2012-12-14d01t04.flac
4:08.44 43850732 B --- -- ---xx flac 0.5624 revivalists2012-12-14d01t05.flac
5:21.11 56650316 B --- -- ---xx flac 0.5508 revivalists2012-12-14d01t06.flac
1:06.40 11736524 B --- -- ---xx flac 0.3511 revivalists2012-12-14d01t07.flac
9:11.50 97314044 B --- -- ---xx flac 0.5249 revivalists2012-12-14d01t08.flac
8:28.21 89660636 B --- -- ---xx flac 0.5751 revivalists2012-12-14d01t09.flac
0:20.13 3558620 B --- -- ---xx flac 0.4914 revivalists2012-12-14d01t10.flac
1:16.29 13474652 B --- -- ---xx flac 0.4217 revivalists2012-12-14d01t11.flac
48:38.08 514754500 B 0.5414 (11 files)
























Checksumsrevivalists2012-12-14d01t01.flac:05b5248a46e319569f701a28d2f84e83
revivalists2012-12-14d01t02.flac:6c20de8d24ad6be57365836e10fcd3ac
revivalists2012-12-14d01t03.flac:751553dc113da0583495967c55a23ec9
revivalists2012-12-14d01t04.flac:0a478b728a07c61b8076e9dfac0e17e5
revivalists2012-12-14d01t05.flac:21d81fd788813139b0d8465445043a80
revivalists2012-12-14d01t06.flac:bfe87da1dd2274fca79857fca6ae0d85
revivalists2012-12-14d01t07.flac:de4f1f70e4b7bc1e7be8c4b0d6e11df6
revivalists2012-12-14d01t08.flac:fdd0962a97e8c1943184eb23b9513649
revivalists2012-12-14d01t09.flac:594abdc06535a2ef6c1b3338c1fc268d
revivalists2012-12-14d01t10.flac:e6f4f34b3766a1ec796636ba94183b4d
revivalists2012-12-14d01t11.flac:80ca95914916749fdfe8215dc7b01a15
TypeOther
Last seederLast activity 6:27 ago
Size265.76 MB (278665487 Bytes)
Added2012-12-15 09:15:15
Views0
Hits430
Snatched268 times
Upped byzmanatl
Num files12 files
File List
[Hide list]
filenamesizemd5
revivalists2012-12-14d01t09.flac49.18 MBN/A
revivalists2012-12-14d01t08.flac48.71 MBN/A
revivalists2012-12-14d01t04.flac44.38 MBN/A
revivalists2012-12-14d01t06.flac29.76 MBN/A
revivalists2012-12-14d01t02.flac28.54 MBN/A
revivalists2012-12-14d01t03.flac28.09 MBN/A
revivalists2012-12-14d01t05.flac23.52 MBN/A
revivalists2012-12-14d01t11.flac5.42 MBN/A
revivalists2012-12-14d01t07.flac3.93 MBN/A
revivalists2012-12-14d01t01.flac2.57 MBN/A
revivalists2012-12-14d01t10.flac1.67 MBN/A
revivalists2012-12-14.textfile.txt2.6 kBN/A
Peers
[See full list]
2 seeders, 0 leechers = 2 peers total

Add a comment

raimax 2012-12-15 09:37:19
thank you
Tomahawk Kid 2012-12-15 09:51:56
Thank you very much!
africolaman 2012-12-15 12:16:44
Thanks.
Blues_Ken 2012-12-16 09:55:28
Thank you Zman
mike1061 2012-12-16 20:11:17
thanks
Mike
bdiggle 2012-12-17 16:53:25
Thank You! Awesome work!

Here's most of the setlist...

02 Concrete (Fish Out of Water)
03 All in the Family
04 *Common Cents
05 ?
06 Criminal
07 Soulshine Tease
08 #Soulfight
09 #Catching Fireflies

Add a comment


http://etree.org : http://db.etree.org : http://forums.etree.org : http://wiki.etree.org : Legal : RSS Feed

Contents designed & maintained by the etree.org volunteers
1998-2014, etree.org, except where noted. All Rights Reserved.
Read our terms of service and privacy guidelines