bt.etree.org
etree.org Community Bittorrent Tracker
ArtistWarren Haynes
ShowWarren Haynes/The Lee Boys Warren Haynes Christmas Pre-Jam Orange Peel Asheville, North Carolina 12/14/2012 (Schoeps CCM4V'S)
Report this as
non-Trade-Friendly
Email us
Torrentwarren-lee2012-12-14.flac16.torrent (click to download)
Downloads aswarren-lee2012-12-14.flac16
Info hash19294858f5e9885add5676b90196b3b14a672793
DescriptionWarren Haynes Acoustic/Lee Boys
Warren Haynes Christmas Pre-Jam
Orange Peel
Asheville, North Carolina
12/14/2012

Source: Schoeps CCM4V'S(din)>Sound Devices 722 (24/48)
At Soundboard/DFC/KFC/ZFC/AARP 40' From Stage, 8' High
DSP: Sound Devices 722>Sound Forge 9.0>CD Wave>flac(16)
Recorded By: Z-Man
Seeded By: Z-Man

Disc I

01 Greeting By Dennis Of WNCW
02 Introduction By Martin Anderson
03 Black Pearl
04 Warren Banter/Tuning
05 Give Me Love (Give Me Peace On Earth)
06 Martin Anderson Interviews Warren Haynes
The Lee Boys:
07 Going To Glory
08 I'm Not Tired
09 Standin' On Shaky Ground
10 Testify
11 Voodoo Chile
12 Announcements By Martin Anderson

Flac Fingerprint

warren-lee2012-12-14d01t01.flac:26f1a66dd05684ab28732e2dc40e053c
warren-lee2012-12-14d01t02.flac:33763909a1a697bf0f474fcd5e9be353
warren-lee2012-12-14d01t03.flac:c7a1165f3c2b90f5079c52297677074b
warren-lee2012-12-14d01t04.flac:51fb9ab8ec9d62c2319fea5a2f6970f5
warren-lee2012-12-14d01t05.flac:9e7e3e604bb278864ed83d6150b8d33e
warren-lee2012-12-14d01t06.flac:61bdf99f26d91d36b1f8feb735f9e5a7
warren-lee2012-12-14d01t07.flac:83b3d0f3f4e9d109242c486a83c11cd4
warren-lee2012-12-14d01t08.flac:9c50dd19b9765283816c18040943a85b
warren-lee2012-12-14d01t09.flac:46dc8083f91fed5976abdd2d746e3503
warren-lee2012-12-14d01t10.flac:c734e763ce09d7f1cf0d224753246294
warren-lee2012-12-14d01t11.flac:e65c3ae9b5ec42c0c5c5c9cb5d498d83
warren-lee2012-12-14d01t12.flac:a469c9b5f075cfb29a5fe4fcbec8c501

Shntool

length expanded size cdr WAVE problems fmt ratio filename
0:32.36 5729516 B --- -- ---xx flac 0.4092 warren-lee2012-12-14d01t01.flac
0:51.05 9008204 B --- -- ---xx flac 0.4356 warren-lee2012-12-14d01t02.flac
4:34.66 48488876 B --- -- ---xx flac 0.4447 warren-lee2012-12-14d01t03.flac
2:40.10 28247564 B --- -- ---xx flac 0.3181 warren-lee2012-12-14d01t04.flac
4:31.40 47898524 B --- -- ---xx flac 0.4187 warren-lee2012-12-14d01t05.flac
6:21.35 67290764 B --- -- ---xx flac 0.3761 warren-lee2012-12-14d01t06.flac
7:02.54 74567852 B --- -- ---xx flac 0.5332 warren-lee2012-12-14d01t07.flac
7:16.22 76962188 B --- -- ---xx flac 0.5416 warren-lee2012-12-14d01t08.flac
5:49.36 61648316 B --- -- ---xx flac 0.5458 warren-lee2012-12-14d01t09.flac
5:36.53 59395100 B --- -- ---xx flac 0.5529 warren-lee2012-12-14d01t10.flac
3:47.18 40085180 B --- -- ---xx flac 0.5770 warren-lee2012-12-14d01t11.flac
3:13.71 34212236 B --- -- ---xx flac 0.3840 warren-lee2012-12-14d01t12.flac
52:17.71 553534320 B 0.4812 (12 files)


















Checksumswarren-lee2012-12-14d01t01.flac:26f1a66dd05684ab28732e2dc40e053c<br />
warren-lee2012-12-14d01t02.flac:33763909a1a697bf0f474fcd5e9be353<br />
warren-lee2012-12-14d01t03.flac:c7a1165f3c2b90f5079c52297677074b<br />
warren-lee2012-12-14d01t04.flac:51fb9ab8ec9d62c2319fea5a2f6970f5<br />
warren-lee2012-12-14d01t05.flac:9e7e3e604bb278864ed83d6150b8d33e<br />
warren-lee2012-12-14d01t06.flac:61bdf99f26d91d36b1f8feb735f9e5a7<br />
warren-lee2012-12-14d01t07.flac:83b3d0f3f4e9d109242c486a83c11cd4<br />
warren-lee2012-12-14d01t08.flac:9c50dd19b9765283816c18040943a85b<br />
warren-lee2012-12-14d01t09.flac:46dc8083f91fed5976abdd2d746e3503<br />
warren-lee2012-12-14d01t10.flac:c734e763ce09d7f1cf0d224753246294<br />
warren-lee2012-12-14d01t11.flac:e65c3ae9b5ec42c0c5c5c9cb5d498d83<br />
warren-lee2012-12-14d01t12.flac:a469c9b5f075cfb29a5fe4fcbec8c501<br />
TypeWarren Haynes
Last seederLast activity 12:50 ago
Size254.04 MB (266376170 Bytes)
Added2012-12-15 09:19:07
Views0
Hits680
Snatched415 times
Upped byzmanatl
Num files
[See full list]
13 files
Seeders
[Hide list]
3 Seeder(s)
ip:portclient
version
ul
bytes
dl
bytes
ratiocompleteul
rate
dl
rate
time
connected
time
left
idle
24.101.53.xxx:19181 μtorrent 3.4.2.0 0 B 0 B N/A 100.00%
N/A N/A 6 days, 07:21:54 N/A 22:23
98.28.232.xxx:33214 0 B 0 B N/A 100.00%
N/A N/A 1:20:27 N/A 1:20:27
98.28.232.xxx:33214 0 B 0 B N/A 100.00%
N/A N/A 1:12:57 N/A 12:50
0 of 3 firewalled (0%) 100.00%
N/AN/A
Leechers
[Hide list]
0 Leecher(s)

Add a comment

raimax 2012-12-15 09:37:44
thank you
Tomahawk Kid 2012-12-15 09:54:02
Thank you!
Tom_of_Mule 2012-12-15 10:36:13
Thanks Z !
Tom
Timezone 2012-12-15 11:10:28
Thank you. Solace here.
MULE TAPER 2012-12-15 11:13:55
Z if you think about your set up you were actually FOB
africolaman 2012-12-15 12:16:28
Thanks.
Reelboy 2012-12-15 13:15:47
Thanks very much, Z, for sharing the pre-jam!
bdiggle 2012-12-15 13:46:32
Thank You! Can't be in Asheville this year. Looking forward to tonight's sets when you get them!

03 - Black (Pearl Jam cover)
07 - Going to Glory

Lee Boys same set list as when I saw them open for Mule in DC in November.
bvaz 2012-12-15 14:14:55
thanks z
bigdaddybflo 2012-12-15 14:44:45
Wish i was there. GO Z GO !!
Blues_Ken 2012-12-16 09:56:53
Thank you Zman
bigdaddybflo 2012-12-16 13:29:32
Was Lenny there ?
mike1061 2012-12-16 20:10:50
Thanks
Mike
poizon45 2012-12-17 09:48:33
hey thanks zman!

Add a comment


http://etree.org : http://db.etree.org : http://forums.etree.org : http://wiki.etree.org : Legal : RSS Feed

Contents designed & maintained by the etree.org volunteers
1998-2014, etree.org, except where noted. All Rights Reserved.
Read our terms of service and privacy guidelines