bt.etree.org
etree.org Community Bittorrent Tracker
ArtistOther
ShowSheryl Crow Warren Haynes Christmas Jam Asheville Civic Center Asheville, North Carolina 12/15/2012 (Schoeps CCM4V'S FOB)
Report this as
non-Trade-Friendly
Email us
Torrentsherylcrow2012-12-15.flac16.torrent (click to download)
Downloads assherylcrow2012-12-15.flac16
Info hash109a27b9507ef89bad5747cc251b87de310576e3
DescriptionSheryl Crow
Warren Haynes Christmas Jam
Asheville Civic Center
Asheville, North Carolina
12/15/2012

Source: Schoeps CCM4V'S(din)>Lunatec V2>Benchmark AD2K>
Sound Devices 722 (24/48)
FOB/DFC/KFC/ZFC/AARP 40' From Stage, 6 1/2' High
DSP: Sound Devices 722>Sound Forge 9.0>CD Wave>flac(16)
Recorded By: Z-Man
Seeded By: Z-Man

Disc I

01 Introduction By Warren Haynes
02 Steve McQueen
03 All I Wanna Do
04 Can't Cry Anymore
05 A Change
06 My Favorite Mistake
07 *#@Can't Find My Way Home
08 *If It Makes You Happy
09 ^Every Day Is A Winding Road
10 *Run Run Rudolph

* With Warren Haynes On Guitar
# With Trombone Shorty On Trombone
@ With ? On Percussion
^ With Jason Hann On Percussion

Flac Fingerprint

sherylcrow2012-12-15d01t01.flac:5d3e2450f8f8913620ad8a739b42c9f3
sherylcrow2012-12-15d01t02.flac:cce2765e0a13226b41f41d6ba91428f2
sherylcrow2012-12-15d01t03.flac:c23f6bc4fba0cbd41ae6a7d88ab740f7
sherylcrow2012-12-15d01t04.flac:15c8a54da5f00d652b7155ab32399500
sherylcrow2012-12-15d01t05.flac:b3aaf98f1120495ac3e34c94700175a1
sherylcrow2012-12-15d01t06.flac:400f19c7d2b1e84ed649dca8535876e9
sherylcrow2012-12-15d01t07.flac:ae828a13fad543d887ae227e5daf08e2
sherylcrow2012-12-15d01t08.flac:cdadcd3d34fca5fb3545c028e9f51185
sherylcrow2012-12-15d01t09.flac:dfcda9cc36f261a39ab50f766fa0daf1
sherylcrow2012-12-15d01t10.flac:d6292b7e8af595f19eff1f9d3858f868

Shntool

length expanded size cdr WAVE problems fmt ratio filename
0:29.67 5273228 B --- -- ---xx flac 0.3719 sherylcrow2012-12-15d01t01.flac
4:26.62 47068268 B --- -- ---xx flac 0.5613 sherylcrow2012-12-15d01t02.flac
5:00.46 53028236 B --- -- ---xx flac 0.5346 sherylcrow2012-12-15d01t03.flac
6:57.69 73721132 B --- -- ---xx flac 0.5144 sherylcrow2012-12-15d01t04.flac
6:09.11 65117516 B --- -- ---xx flac 0.5817 sherylcrow2012-12-15d01t05.flac
6:06.46 64670636 B --- -- ---xx flac 0.5050 sherylcrow2012-12-15d01t06.flac
6:34.34 69581612 B --- -- ---xx flac 0.5064 sherylcrow2012-12-15d01t07.flac
5:43.49 60620492 B --- -- ---xx flac 0.5552 sherylcrow2012-12-15d01t08.flac
6:23.05 67573004 B --- -- ---xx flac 0.5493 sherylcrow2012-12-15d01t09.flac
3:50.68 40731980 B --- -- ---xx flac 0.5233 sherylcrow2012-12-15d01t10.flac
51:43.07 547386104 B 0.5344 (10 files)



Checksumssherylcrow2012-12-15d01t01.flac:5d3e2450f8f8913620ad8a739b42c9f3<br />
sherylcrow2012-12-15d01t02.flac:cce2765e0a13226b41f41d6ba91428f2<br />
sherylcrow2012-12-15d01t03.flac:c23f6bc4fba0cbd41ae6a7d88ab740f7<br />
sherylcrow2012-12-15d01t04.flac:15c8a54da5f00d652b7155ab32399500<br />
sherylcrow2012-12-15d01t05.flac:b3aaf98f1120495ac3e34c94700175a1<br />
sherylcrow2012-12-15d01t06.flac:400f19c7d2b1e84ed649dca8535876e9<br />
sherylcrow2012-12-15d01t07.flac:ae828a13fad543d887ae227e5daf08e2<br />
sherylcrow2012-12-15d01t08.flac:cdadcd3d34fca5fb3545c028e9f51185<br />
sherylcrow2012-12-15d01t09.flac:dfcda9cc36f261a39ab50f766fa0daf1<br />
sherylcrow2012-12-15d01t10.flac:d6292b7e8af595f19eff1f9d3858f868<br />
<br />
Shntool
TypeOther
Last seederLast activity 25:40 ago
Size278.96 MB (292506329 Bytes)
Added2012-12-16 05:08:12
Views0
Hits933
Snatched628 times
Upped byzmanatl
Num files
[See full list]
11 files
Peers
[See full list]
2 seeders, 0 leechers = 2 peers total

Add a comment

BlusOxator 2012-12-16 05:31:09
Thank you for your hard work...
Tomahawk Kid 2012-12-16 05:49:05
Yes, thank you very much!
africolaman 2012-12-16 06:28:07
Thanks.
raimax 2012-12-16 08:30:18
thank you
bvaz 2012-12-16 08:41:41
nice work Z
ccole 2012-12-16 08:48:59
Nice work Z... thanks!

02. Steve McQueen
05. A Change
06. My Favorite Mistake


Tom_of_Mule 2012-12-16 09:29:58
Thanks Z !
Tom
EarthRocks 2012-12-16 09:49:04
Thanks Z. How about some Cheese? Hope you and everyone had fun.
Reelboy 2012-12-16 11:41:06
Thank you very much!
Blues_Ken 2012-12-16 12:36:54
Thank you Zman
bigdaddybflo 2012-12-16 13:29:01
was Lenny there?
jakec 2012-12-16 14:35:10
cool! thanks!!!
thecat18 2012-12-16 15:01:15
Thanks for sharing.
mike1061 2012-12-16 20:09:58
Thanks
Mike
boedi-taper 2012-12-18 00:17:49
Thanks for tbis Z!!!!!!!!!!!!!
CertainlyWoof 2012-12-29 23:37:33
Here is a link to a video (not the best quality) of "Can't Find My Way Home" if anybody is interested.

https://www.youtube.com/watch?v=9TT3zpi1WVI

Add a comment


http://etree.org : http://db.etree.org : http://forums.etree.org : http://wiki.etree.org : Legal : RSS Feed

Contents designed & maintained by the etree.org volunteers
1998-2014, etree.org, except where noted. All Rights Reserved.
Read our terms of service and privacy guidelines