bt.etree.org
etree.org Community Bittorrent Tracker
ArtistWarren Haynes
ShowWarren Haynes Band Warren Haynes Christmas Jam Asheville Civic Center Asheville, North Carolina 12/15/2012 (Schoeps CCM4V'S FOB)
Report this as
non-Trade-Friendly
Email us
Torrentwhb2012-12-15.flac16.torrent (click to download)
Downloads aswhb2012-12-15.flac16
Info hash1bd9e7da3750f9064fa8529646b2edf9ae0220d8
db linkhttp://db.etree.org/shn/129682 | Show | Source
DescriptionWarren Haynes Band
Warren Haynes Christmas Jam
Asheville Civic Center
Asheville, North Carolina
12/15/2012

Source: Schoeps CCM4V'S(din)>Lunatec V2>Benchmark AD2K>
Sound Devices 722 (24/48)
FOB/DFC/KFC/ZFC/AARP 40' From Stage, 6 1/2' High
DSP: Sound Devices 722>Sound Forge 9.0>CD Wave>flac(16)
Recorded By: Z-Man
Seeded By: Z-Man

Disc I

01 Intro Jam >
02 Tear Me Down
03 The River's Gonna Rise
04 *#On A Real Lonely Night
05 A Change Is Gonna Come >
06 *Spanish Castle Magic >
07 *Third Stone Jam >
08 *Spanish Castle Magic

Disc II

01 Invisible
02 *@I Wish
03 *@Pretzel Logic >
04 Drum Solo >
05 *@Pretzel Logic
Encore:
06 Warren Banter
07 *#^$+&Imagine >
08 *#^$+&I'll Take You There >
09 *#^$+&Imagine

* With Karl Denson On Saxophone
# With Count M'Butu On Percussion
@ With ? On Saxophone
^ With Mike Barnes On Guitar
$ With Artemus Pyle
+ With Dr. Dan Metrazzo On Keyboards
& With The Entire Revivalists Band

Flac Fingerprint

whb2012-12-15d01t01.flac:6a7111392c98dd46778024ec0f529684
whb2012-12-15d01t02.flac:cc6b79b91fac110b84aac0681ef9a1b1
whb2012-12-15d01t03.flac:0f928b7853bee4b7ecbce3afad1dee6b
whb2012-12-15d01t04.flac:088cfbb7bba661c783dc1c35854d17fe
whb2012-12-15d01t05.flac:0ab94aea2b722371a72752cdc7ddc4be
whb2012-12-15d01t06.flac:c9617830fda88f27048434ad4e9656ae
whb2012-12-15d01t07.flac:fdd6d18e519db796858e225c6ef4da26
whb2012-12-15d01t08.flac:1d99f7168de2edacc43edbea7c1efc13
whb2012-12-15d02t01.flac:76f7e06163d6d203e04c4613b3ef15d2
whb2012-12-15d02t02.flac:3e8ff73b68bbdc75f1f8e15fac7d813a
whb2012-12-15d02t03.flac:4734f74d8ba38746a2ae8b3118756e9a
whb2012-12-15d02t04.flac:9157c61cc64229b76ec327c9e6c3db1f
whb2012-12-15d02t05.flac:c6af7a09ea06d79015dd7cebcfb25ad7
whb2012-12-15d02t06.flac:90a176de0c89e9904d961919a5ee2794
whb2012-12-15d02t07.flac:bfbdf740746880f852a4b1b180031d96
whb2012-12-15d02t08.flac:98582340fada16325896c03d10e0d43e
whb2012-12-15d02t09.flac:ad90c94c4202f53b9c3855fc1e9bedd4

Shntool

length expanded size cdr WAVE problems fmt ratio filename
2:32.52 26935148 B --- -- ---xx flac 0.4595 whb2012-12-15d01t01.flac
6:49.69 72309932 B --- -- ---xx flac 0.5081 whb2012-12-15d01t02.flac
9:51.12 104280668 B --- -- ---xx flac 0.4263 whb2012-12-15d01t03.flac
11:02.32 116852108 B --- -- ---xx flac 0.4702 whb2012-12-15d01t04.flac
7:19.34 77519612 B --- -- ---xx flac 0.4276 whb2012-12-15d01t05.flac
6:47.11 71820716 B --- -- ---xx flac 0.4571 whb2012-12-15d01t06.flac
1:55.12 20314268 B --- -- ---xx flac 0.4936 whb2012-12-15d01t07.flac
0:35.68 6333980 B --- -- ---xx flac 0.4782 whb2012-12-15d01t08.flac
16:46.10 177481964 B --- -- ---xx flac 0.5035 whb2012-12-15d02t01.flac
9:09.42 96942428 B --- -- ---xx flac 0.5205 whb2012-12-15d02t02.flac
3:46.13 39897020 B --- -- ---xx flac 0.4757 whb2012-12-15d02t03.flac
1:41.07 17832908 B --- -- ---xx flac 0.4848 whb2012-12-15d02t04.flac
6:58.26 73796396 B --- -- ---xx flac 0.4732 whb2012-12-15d02t05.flac
2:38.49 27986492 B --- -- ---xx flac 0.3432 whb2012-12-15d02t06.flac
6:42.00 70912844 B --- -- ---xx flac 0.4354 whb2012-12-15d02t07.flac
2:02.21 21570236 B --- -- ---xx flac 0.4712 whb2012-12-15d02t08.flac
2:23.13 25255820 B --- -- ---xx flac 0.4664 whb2012-12-15d02t09.flac
99:01.21 1048042540 B 0.4698 (17 files)

Checksumswhb2012-12-15d01t01.flac:6a7111392c98dd46778024ec0f529684<br />
whb2012-12-15d01t02.flac:cc6b79b91fac110b84aac0681ef9a1b1<br />
whb2012-12-15d01t03.flac:0f928b7853bee4b7ecbce3afad1dee6b<br />
whb2012-12-15d01t04.flac:088cfbb7bba661c783dc1c35854d17fe<br />
whb2012-12-15d01t05.flac:0ab94aea2b722371a72752cdc7ddc4be<br />
whb2012-12-15d01t06.flac:c9617830fda88f27048434ad4e9656ae<br />
whb2012-12-15d01t07.flac:fdd6d18e519db796858e225c6ef4da26<br />
whb2012-12-15d01t08.flac:1d99f7168de2edacc43edbea7c1efc13<br />
whb2012-12-15d02t01.flac:76f7e06163d6d203e04c4613b3ef15d2<br />
whb2012-12-15d02t02.flac:3e8ff73b68bbdc75f1f8e15fac7d813a<br />
whb2012-12-15d02t03.flac:4734f74d8ba38746a2ae8b3118756e9a<br />
whb2012-12-15d02t04.flac:9157c61cc64229b76ec327c9e6c3db1f<br />
whb2012-12-15d02t05.flac:c6af7a09ea06d79015dd7cebcfb25ad7<br />
whb2012-12-15d02t06.flac:90a176de0c89e9904d961919a5ee2794<br />
whb2012-12-15d02t07.flac:bfbdf740746880f852a4b1b180031d96<br />
whb2012-12-15d02t08.flac:98582340fada16325896c03d10e0d43e<br />
whb2012-12-15d02t09.flac:ad90c94c4202f53b9c3855fc1e9bedd4
TypeWarren Haynes
Last seederLast activity 6:30 ago
Size469.53 MB (492333855 Bytes)
Added2012-12-16 15:04:02
Views0
Hits1190
Snatched690 times
Upped byzmanatl
Num files
[See full list]
18 files
Peers
[See full list]
1 seeder, 0 leechers = 1 peer total

Add a comment

<< Prev      Next >>
1 - 20 | 21 - 24

stephenr 2012-12-19 07:00:50
no...specifics. basic EQ, but at what frequencies?
light compression where? in the low end?
too much kick drum in the mix?

thanks...
Albix 2012-12-19 09:36:52
Gotcha covered Stephen.

2 min. raw unedited sample from track 6

http://www.sendspace.com/pro/mngf3d

2 min. edited sample

http://www.sendspace.com/pro/n3elq8

I spent 10 min on this so it's not perfect but it is a big improvement.

I'll post a screen shot shortly which will show you exactly what I did.
Albix 2012-12-19 10:24:00
You may have to zoom in a bit - http://i280.photobucket.com/albums/kk182/Albix12/whb2012-12-15-edit-screen-shot_zps17cd9fba.png

EQ - rolled off bass -3db starting at 114 Hz
-3db at 174db with medium Q
+6db at 1 kHz with a wide @
+6db at 3.4 kHz with a wide Q

Compression (light) - enough to highlight highs and lows

Limiter - +2.70 db, limit set at -0.10 db

The EQ settings are fairly extreme but the source is very muddy and lacking highs. This is my take using my ears, people may think I did it all wrong. That's fine by me it's a matter of personal taste. My whole point here is the music is all on the recording, it just needed adjustment. With a crash course in mastering anyone could do something like this by spending less than an hour before seeding. I am willing to help anyone who really wants to learn the basics.
clarksblues 2012-12-19 18:02:29
THANKSALOT!!!!!!!!!!

1 - 20 | 21 - 24
<< Prev      Next >>

Add a comment


http://etree.org : http://db.etree.org : http://forums.etree.org : http://wiki.etree.org : Legal : RSS Feed

Contents designed & maintained by the etree.org volunteers
1998-2014, etree.org, except where noted. All Rights Reserved.
Read our terms of service and privacy guidelines